Anonymous, доброе утро, присоединяйтесь к нам в Telegram!, здесь всегда актуальный адрес сайта, оперативная поддержка и многое другое!

>

5.6

iTunes

7.4

MVO

5.7

MVO

1

7.7

1 сезон

6.8

iTunes

7.3

1 сезон

13

6.7

1 сезон

8.3

RePack

30

ULTIMATE

pack

9.9

Лицензия

ВАЖНО

ИГРА 18+

pack

7.3

RePack

MK11

7.7

RePack

jed

7.8

RePack

fifa19

8.5

RePack

RDR2

RePack

NEED FOR SPEED™ PAYBACK

4 сезон

9 сезон

Бесстыжие 9 сезон

Все сериалы

все сериалы на PB.wtf

RePack

FAR CRY 5

Anonymous, доброе утро, мы катастрофически не успеваем собрать деньги на оплату серверов, помогите нам пожалуйста 5,10,15р., для нас важна любая помощь . В качестве благодарности мы отключим Вам всю рекламу на сайте (укажите свой ник в строку Ваше имя)!

×
  
Magnet ссылка

Невероятный космос в 3Д / Space Intelligence 3D 3D (Том Шмидт / Tom Schmidt) [2013, документальный, познавательный, BDRip, 1080p] OverUnder / Вертикальная стереопара (VO) pb.wtf

Невероятный космос в 3Д через торрент pb.wtf

Размер: 23.36 GB | Добавлен: 1 год 4 мес. назад | Торрент скачан:13 раз
Смотреть онлайн Невероятный космос в 3Д | Скачать    Ребята, помогите собрать деньги на оплату серверов!!!

03-06-2020 14:59 Невероятный космос в 3Д Скачать торрент  

Невероятный космос / Space Intelligence 3D

Год выпуска: 2013
Страна: США (PERCOLATE DIGITAL for 3net)
Жанр: документальный, познавательный
Продолжительность: 00:48:29 + 00:48:08 + 00:48:09

Перевод: Любительский одноголосый закадровый - NoNamed (перевод любительский - Ash61)
Русские субтитры: нет
Режиссер: Том Шмидт / Tom Schmidt
Рассказчик: Mike O'Meara

Описание: Человечество пытается понять космос на протяжении тысячелетий. Мы направляем на него свои телескопы, отправляем в эту черную пустоту наши космические корабли, но, несмотря на все наши усилия, мы можем только догадываться о бесконечных размерах и тайнах Вселенной.
Мини-сериал "Невероятный космос", состоящий из трех частей, отправляет нас в межзвездное путешествие в самые отдаленные места Вселенной, объясняет неукротимые взаимодействующие силы, и показывает нам ранее скрытые новые миры.

Серии::
1. Расстояния и масштабы / Distance and Scale
2. Экстремальные силы / Extreme Forces
3. Экстремальные условия / Extreme Environments

Сэмпл: http://sendfile.su/1563796

Качество: BDrip, 1080p
Контейнер: MKV
Формат 3D: OverUnder / Вертикальная стереопара
Порядок ракурсов: левый ракурс первый
Видео кодек: x264
Аудио кодек: AC3
Видео: AVC / High@L5.0 / 23,976 fps / 1920х2160 / 21,4 Мбит/сек
Аудио: Русский / AC3 / 48 KHz / 5.1 ch / 640 Кбит/сек
Аудио 2: Английский / AC3 / 48 KHz / 5.1 ch / 640 Кбит/сек

ВНИМАНИЕ ! На встроенных ТВ-плеерах работать не будет!!!

ТВ Samsung в названии которого есть надпись Ultra HD , и LG Ultra HD 800 серии, LG C6P, Xiaomi Mi TV 2 воспроизводят полные стереопары встроенными плеерами
Железные плееры на которых воспроизводятся полные стереопары:Popcorn C-200, Popcorn a-400, Dune HD Smart D1 , Dune HD DUO , Dune HD Smart H1 , Dune HD Smart B1 , Dune HD Max , Dune HD TV-303D, Dune HD TV-102, Dune HD Base 3D, Philips HMP7001, Aura HD, MECOOL BB2, Zidoo x9s, Lake I Cloud, MiBox 3
Чтобы изображение было на весь экран в плеере выставляем, если рип 1920х1600 - то выставляем 2.35:1 , если 1920х2160 - то выставляем 16:9
Общее
Уникальный идентификатор : 223272008704656585837420886205869226086 (0xA7F89FEE5B36C302BEB03D9ECD467866)
Полное имя : E:\видео\Space Intelligence 3D\Space Intelligence 3D vol 1.Rip by SeRoGa00.mkv
Формат : Matroska
Версия формата : Version 2
Размер файла : 7,82 Гбайт
Продолжительность : 48 м.
Общий поток : 23,1 Мбит/сек
Дата кодирования : UTC 2020-06-03 06:11:59
Программа кодирования : mkvmerge v3.4.0 ('Rapunzel') сборка от May 15 2010 09:38:20
Библиотека кодирования : libebml v0.8.0 + libmatroska v0.9.0

Видео
Идентификатор : 1
Формат : AVC
Формат/Информация : Advanced Video Codec
Профиль формата : High@L5.0
Параметр CABAC формата : Да
Параметр ReFrames формата : 4 кадра
Идентификатор кодека : V_MPEG4/ISO/AVC
Продолжительность : 48 м.
Битрейт : 21,4 Мбит/сек
Ширина : 1920 пикселей
Высота : 2160 пикселей
Соотношение сторон : 0,889
Частота кадров : 23,976 кадра/сек
Цветовое пространство : YUV
Субдискретизация насыщенности : 4:2:0
Битовая глубина : 8 бит
Тип развёртки : Прогрессивная
Бит/(Пиксели*Кадры) : 0.215
Размер потока : 7,23 Гбайт (92%)
Заголовок : Rip by SeRoGa00
Библиотека кодирования : x264 core 157 r2969 d4099dd
Настройки программы : cabac=1 / ref=4 / deblock=1:-3:-3 / analyse=0x3:0x113 / me=umh / subme=10 / psy=1 / psy_rd=1.00:0.15 / mixed_ref=1 / me_range=24 / chroma_me=1 / trellis=2 / 8x8dct=1 / cqm=0 / deadzone=21,11 / fast_pskip=1 / chroma_qp_offset=-3 / threads=18 / lookahead_threads=6 / sliced_threads=0 / nr=0 / decimate=0 / interlaced=0 / bluray_compat=0 / constrained_intra=0 / bframes=10 / b_pyramid=2 / b_adapt=2 / b_bias=0 / direct=3 / weightb=1 / open_gop=0 / weightp=2 / keyint=250 / keyint_min=23 / scenecut=40 / intra_refresh=0 / rc_lookahead=60 / rc=crf / mbtree=1 / crf=16.5 / qcomp=0.60 / qpmin=10 / qpmax=69 / qpstep=4 / vbv_maxrate=40000 / vbv_bufsize=40000 / crf_max=0.0 / nal_hrd=none / filler=0 / ip_ratio=1.40 / aq=1:1.00
Язык : English
Default : Нет
Forced : Нет

Аудио #1
Идентификатор : 2
Формат : AC-3
Формат/Информация : Audio Coding 3
Расширение режима : CM (complete main)
Параметр Endianness формата : Big
Идентификатор кодека : A_AC3
Продолжительность : 48 м.
Вид битрейта : Постоянный
Битрейт : 640 Кбит/сек
Каналы : 6 каналов
Расположение каналов : Front: L C R, Side: L R, LFE
Частота : 48,0 КГц
Битовая глубина : 16 бит
Метод сжатия : С потерями
Размер потока : 222 Мбайт (3%)
Язык : Russian
Default : Да
Forced : Нет

Аудио #2
Идентификатор : 3
Формат : AC-3
Формат/Информация : Audio Coding 3
Расширение режима : CM (complete main)
Параметр Endianness формата : Big
Идентификатор кодека : A_AC3
Продолжительность : 48 м.
Вид битрейта : Постоянный
Битрейт : 640 Кбит/сек
Каналы : 6 каналов
Расположение каналов : Front: L C R, Side: L R, LFE
Частота : 48,0 КГц
Битовая глубина : 16 бит
Метод сжатия : С потерями
Размер потока : 222 Мбайт (3%)
Язык : English
Default : Нет
Forced : Нет

Меню
00:00:00.000 : :1
00:09:59.974 : :2
00:19:59.990 : :3
00:29:59.965 : :4
00:39:59.981 : :5
скриншот  

скриншот  

скриншот  

скриншот  

скриншот  

скриншот  

скриншот  

скриншот  

скриншот  

скриншот  
pb.wtf



Скачать Невероятный космос в 3Д через торрент https://c.radikal.ru/c14/2006/65/e6584e44d0f1.jpg Скачать, смотреть онлайн Невероятный космос в 3Д бесплантно в хорошем качестве Описание: Человечество пытается понять космос на протяжении тысячелетий. Мы направляем на него свои телескопы, отправляем в эту черную ... 5 10 1
Торрент: Зарегистрирован [2020-06-03 14:59] · скачан: 13 раз
Статус: √ проверено
Размер: 23.36 GB
Как cкачать? Как скачать Невероятный космос в 3Д через торрент | UTorrent

28-11-2019 20:33  

Отключить всю рекламу на сайте

    Дорогой пользователь! Огромная просьба, поблагодарите релизера, оцените раздачу и оставьте свои комментарий, если Вы скачали Невероятный космос в 3Д через торрент бесплатно!
    Комментировать посты могут только пользователи прошедшие не сложную регистрацию
    Показать сообщения:    

    Невероятный космос в 3Д через торрент
    Скачать бесплатно Невероятный космос в 3Д
    Невероятный космос в 3Д скачать торрент
    Невероятный космос в 3Д смотреть онлайн
    Cкачать фильм Невероятный космос в 3Д бесплатно
    Невероятный космос в 3Д скачать торрент в хорошем качестве
    Невероятный космос в 3Д смотреть онлайн бесплатно в хорошем качестве


    Вы не можете начинать темы
    Вы не можете отвечать на сообщения
    Вы не можете редактировать свои сообщения
    Вы не можете удалять свои сообщения
    Вы не можете голосовать в опросах
    Вы не можете прикреплять файлы к сообщениям
    Вы можете скачивать файлы