Ссылка на приватное зеркало нашего сайта всего за 1$. Внимание количество ограничено!!!

2 сезон

iTunes

1 сезон

1

iTunes

iTunes

iTunes

1 сезон

RePack

30

ИГРА 18+

pack

ВАЖНО

!!Акция!!

Alien_RageХит недели

RePack

MK11
pack

Забери бонус

RePack

jed

!!Акция!!

Alien_Rage

RePack

fifa19

RePack

Assassins Creed: Odyssey

RePack

NEED FOR SPEED™ PAYBACK

4 сезон

9 сезон

Бесстыжие 9 сезон

Все сериалы

все сериалы на PB.wtf

RePack

FAR CRY 5
  

Последствия / Сезон: 1 / Серии: 1-8 из 8 (Александр Котт) [2020, Мелодрама, WEB-DL 720p] pb.wtf

Последствия через торрент pb.wtf

Размер: 8.16 GB | Добавлен: 3 мес. 5 д. назад | Торрент скачан:10 раз
Скачать  

03-06-2020 19:18 Последствия Скачать торрент  

Последствия
Год выпуска: 2020
Страна: Россия
Жанр: Мелодрама
Продолжительность: ~ 00:48:00
Субтитры: отсутствуют

Режиссер: Александр Котт



В ролях: Александр Самойленко, Алёна Бабенко, Анна Тараторкина, Лёля Баранова, Сергей Ланбамин, Владислав Ветров, Егор Корешков

Описание: Несколько лет назад Андрей случайно узнал, что одна из трех дочерей – не от него. Он развелся с женой и добился полной опеки над детьми, запретив бывшей жене приближаться к ним. Все шло хорошо, но Андрею поставили страшный диагноз: у него нашли рак, и жить осталось несколько месяцев. Он понимает, что дочерям нужна мать и делает предложение своей девушке, но случайно встречает свою бывшую жену и понимает, что все еще любит ее. Каждое действие, каждый шаг, каждый неверный выбор усугубляют проблемы героев. Смогут ли они ликвидировать последствия своих решений?

Качество: WEB-DL 720p
Формат: MKV

Видео: 1280x720, (16:9), 25 fps, AVC MPEG-4 (x264), High@L4.1 ~ 2950 kbps , 0.128 bit/pixel
Аудио: 48.0 kHz, AC3 Dolby Digital, 2/0 (L,R) ch, ~ 192 kbps
скриншот  скриншот  скриншот  скриншот  скриншот  

Общее
Уникальный идентификатор : 216436534186576000315026363096000273312 (0xA2D42904804A405AABAE443BE4529BA0)
Полное имя : C:\Posledstviya.S01.2019.WEB-DL.(720p).ExKinoRay\Posledstviya.S01.E01.2019.WEB-DL.(720p).ExKinoRay.mkv
Формат : Matroska
Версия формата : Version 4
Размер файла : 1,07 Гбайт
Продолжительность : 48 м. 4 с.
Общий поток : 3 196 Кбит/сек
Дата кодирования : UTC 2020-06-03 08:29:49
Программа кодирования : mkvmerge v6.9.1 ('Blue Panther') 64bit built on Apr 18 2014 18:23:38
Библиотека кодирования : libebml v1.3.0 + libmatroska v1.4.1

Видео
Идентификатор : 1
Формат : AVC
Формат/Информация : Advanced Video Codec
Профиль формата : High@L4.1
Настройки формата : CABAC / 9 Ref Frames
Параметр CABAC формата : Да
Параметр RefFrames формата : 9 кадров
Идентификатор кодека : V_MPEG4/ISO/AVC
Продолжительность : 48 м. 4 с.
Битрейт : 2 950 Кбит/сек
Ширина : 1 280 пикселей
Высота : 720 пикселей
Соотношение сторон : 16:9
Режим частоты кадров : Постоянный
Частота кадров : 25,000 кадров/сек
Цветовое пространство : YUV
Субдискретизация насыщенности : 4:2:0
Битовая глубина : 8 бит
Тип развёртки : Прогрессивная
Бит/(Пиксели*Кадры) : 0.128
Размер потока : 1 011 Мбайт (92%)
Default : Нет
Forced : Нет
Цветовой диапазон : Limited
Основные цвета : BT.709
Характеристики трансфера : BT.709
Коэффициенты матрицы : BT.709
Duration_Source : General_Duration

Аудио
Идентификатор : 2
Формат : AC-3
Формат/Информация : Audio Coding 3
Коммерческое название : Dolby Digital
Идентификатор кодека : A_AC3
Продолжительность : 48 м. 4 с.
Вид битрейта : Постоянный
Битрейт : 192 Кбит/сек
Каналы : 2 канала
Channel layout : L R
Частота : 48,0 КГц
Частота кадров : 31,250 кадров/сек (1536 SPF)
Метод сжатия : С потерями
Размер потока : 66,0 Мбайт (6%)
Язык : Russian
Service kind : Complete Main
Default : Да
Forced : Нет
Duration_Source : General_Duration

Когда раздача ведётся путём добавления новых серий, при каждом добавлении создётся новый торрент. Чтобы начать докачку новой серии, пользователям необходимо сделать следующее:
(1) остановить скачивание,
(2) удалить старый торрент у себя из клиента (старые серии удалять не надо),
(3) скачать новый торрент и запустить его у себя в клиенте вместо старого, при этом указать клиенту путь в старую папку, куда и должно происходить скачивание новых серий.
Ваш клиент при этом должен произвести хеширование (проверку) старой папки (если не производит сам - помогите ему сделать это), и будет докачивать только те серии, которых у вас ещё нет. Старые серии при этом не удаляются, а продолжают раздаваться!
Eсли вы уже удалили старые серии, то предотвратить повторную закачку старых серий можно, отжав галочку в соответсвующих местах при запуске нового торрента. По возможности, желательно не удалять старые серии как можно дольше, чтобы релизер не столько продолжал раздавать старые серии, а смог сконцентрироваться на новых.
pb.wtf



Скачать Последствия через торрент https://b.radikal.ru/b04/2006/18/35694db971ab.jpg Скачать фильм Последствия через торрент бесплантно в хорошем качестве Описание: Несколько лет назад Андрей случайно узнал, что одна из трех дочерей – не от него. Он развелся с женой и добился полной опеки над ... 10 10 3
Торрент: Зарегистрирован [2020-07-23 02:16] · скачан: 10 раз
Статус: √ проверено
Размер: 8.16 GB
Как cкачать? Как скачать Последствия через торрент | qTorrent

% Раздел Тема Автор DL S | L
Наши сериалы [ 13.26 GB ] Последствия / Сезон: 1 / Серии: 1-8 из 8 [2020 Мело WEB-DL 1080p] bober100 Скачать
1 | 0
Наши сериалы [ 5.6 GB ] Последствия / Сезон: 1 / Серии: 1-8 из 8 [2020 Мело WEB-DLRip-AVC] bober100 Скачать
1 | 0
Наши сериалы [ 4.98 GB ] Последствия / Сезон: 1 / Серии: 1-8 из 8 [2020 Мело WEB-DLRip] bober100 Скачать
1 | 0

28-11-2019 20:33  

Отключить всю рекламу на сайте

    Дорогой пользователь! Огромная просьба, поблагодарите релизера, оцените раздачу и оставьте свои комментарий, если Вы скачали Последствия через торрент бесплатно! Внесите свою лепту в развитие PiratBit!
    Комментировать посты могут только пользователи прошедшие не сложную регистрацию
    Показать сообщения:    

    Последствия через торрент
    Скачать бесплатно Последствия
    Последствия скачать торрент
    Последствия смотреть онлайн
    Cкачать фильм Последствия бесплатно
    Последствия скачать торрент в хорошем качестве
    Последствия смотреть онлайн бесплатно в хорошем качестве


    Вы не можете начинать темы
    Вы не можете отвечать на сообщения
    Вы не можете редактировать свои сообщения
    Вы не можете удалять свои сообщения
    Вы не можете голосовать в опросах
    Вы не можете прикреплять файлы к сообщениям
    Вы можете скачивать файлы