Ссылка на приватное зеркало нашего сайта всего за 1$. Внимание количество ограничено!!!

2 сезон

iTunes

1 сезон

1

2 сезон

2 сезон

iTunes

1 сезон

RePack

30

Новинка

ВАЖНО

ИГРА 18+

pack

RePack

MK11
pack

Забери бонус

RePack

jed

!!Акция!!

Alien_Rage

RePack

fifa19

RePack

Assassins Creed: Odyssey

RePack

NEED FOR SPEED™ PAYBACK

4 сезон

9 сезон

Бесстыжие 9 сезон

Все сериалы

все сериалы на PB.wtf

RePack

FAR CRY 5
  

Кэрри в большом городе / Кэрри Пилби / Carrie Pilby (Сьюзен Джонсон) [2016, Драма, комедия, WEB-DL 1080p] MVO [iTunes] pb.wtf

Кэрри в большом городе через торрент pb.wtf

Размер: 3.84 GB | Добавлен: 5 мес. 22 д. назад | Торрент скачан:78 раз
Скачать  

03-06-2020 19:41 Кэрри в большом городе Скачать торрент  

Кэрри в большом городе | Кэрри Пилби | Carrie Pilby
Год выпуска: 2016
Страна: США
Жанр: Драма, комедия
Продолжительность: 01:37:53
Перевод: Профессиональный (многоголосый) | iTunes
Субтитры: отсутствуют

Режиссер: Сьюзен Джонсон

rating

В ролях: Бел Паули, Нэйтан Лейн, Гэбриел Бирн, Ванесса Байер, Колин О’Донохью, Джейсон Риттер, Уильям Моусли, Десмин Боргес, Пурна Джаганнатан, Захари Инфанте

Описание: Что делать, если вам 19, вы — вундеркинд и живете в Нью-Йорке? Составьте список самых заветных желаний и смело бросайтесь навстречу приключениям в большом городе.

Качество: WEB-DL 1080p
Формат: MKV

Видео: MPEG-4 AVC, 1920x1080, ~ 5 230 kb/s, 8 bits, 24.000 FPS
Аудио: 48 kHz, AC3 Dolby Digital, 3/2 (L,C,R,l,r) + LFE ch, ~384 kbps
скриншот  скриншот  скриншот  скриншот  скриншот  

General
Unique ID : 147610049970537508255254636822612131211 (0x6F0CA95A3B4C3DA320EE0B88D9A3BD8B)
Complete name : [KORSARS]_Carrie.Pilby.WEBDL.1080p.iTunes.mkv
Format : Matroska
Format version : Version 4
File size : 3.84 GiB
Duration : 1 h 37 min
Overall bit rate : 5 616 kb/s
Movie name : [KORSARS]_Carrie.Pilby.WEBDL.1080p.iTunes
Encoded date : UTC 2020-06-03 19:11:10
Writing application : mkvmerge v47.0.0 ('Black Flag') 64-bit
Writing library : libebml v1.3.10 + libmatroska v1.5.2

Video
ID : 1
Format : AVC
Format/Info : Advanced Video Codec
Format profile : High@L4
Format settings : CABAC / 4 Ref Frames
Format settings, CABAC : Yes
Format settings, Reference : 4 frames
Codec ID : V_MPEG4/ISO/AVC
Duration : 1 h 37 min
Bit rate : 5 230 kb/s
Width : 1 920 pixels
Height : 1 080 pixels
Display aspect ratio : 16:9
Frame rate mode : Constant
Frame rate : 24.000 FPS
Color space : YUV
Chroma subsampling : 4:2:0
Bit depth : 8 bits
Scan type : Progressive
Bits/(Pixel*Frame) : 0.105
Stream size : 3.58 GiB (93%)
Title : [KORSARS]_Carrie.Pilby.WEBDL.1080p.iTunes
Language : English
Default : Yes
Forced : No
Color range : Limited
Color primaries : BT.709
Transfer characteristics : BT.709
Matrix coefficients : BT.709

Audio
ID : 2
Format : AC-3
Format/Info : Audio Coding 3
Commercial name : Dolby Digital
Codec ID : A_AC3
Duration : 1 h 37 min
Bit rate mode : Constant
Bit rate : 384 kb/s
Channel(s) : 6 channels
Channel layout : L R C LFE Ls Rs
Sampling rate : 48.0 kHz
Frame rate : 31.250 FPS (1536 SPF)
Compression mode : Lossy
Delay relative to video : -42 ms
Stream size : 269 MiB (7%)
Language : Russian
Service kind : Complete Main
Default : Yes
Forced : No

Menu
00:00:00.000 : ru:Глава 1
00:04:02.958 : ru:Глава 2
00:11:07.749 : ru:Глава 3
00:16:43.624 : ru:Глава 4
00:23:17.124 : ru:Глава 5
00:32:07.706 : ru:Глава 6
00:40:23.164 : ru:Глава 7
00:50:54.830 : ru:Глава 8
00:59:22.580 : ru:Глава 9
01:12:51.496 : ru:Глава 10
01:22:20.621 : ru:Глава 11
01:28:16.162 : ru:Глава 12
01:37:52.995 : ru:Глава 13

pb.wtf



Скачать Кэрри в большом городе через торрент http://c.radikal.ru/c18/2006/c1/f5299b6a66b0.png Скачать фильм Кэрри в большом городе через торрент бесплантно в хорошем качестве Описание: Что делать, если вам 19, вы — вундеркинд и живете в Нью-Йорке? Составьте список самых заветных желаний и смело бросайтесь ... 10 10 5
Торрент: Зарегистрирован [2020-06-03 19:41] · скачан: 78 раз
Статус: √ проверено
Размер: 3.84 GB
Как cкачать? Как скачать Кэрри в большом городе через торрент | qTorrent

% Раздел Тема Автор DL S | L
Фильмы 2016 [DVDrip, WEB-DLRip, HDrip] (DUB, MVO) [ 1.46 GB ] Кэрри в большом городе / Кэрри Пилби / Carrie Pilby [2016 WEB-DLRip] MVO bober100 Скачать
1 | 0

28-11-2019 20:33  

Отключить всю рекламу на сайте

    Дорогой пользователь! Огромная просьба, поблагодарите релизера, оцените раздачу и оставьте свои комментарий, если Вы скачали Кэрри в большом городе через торрент бесплатно! Внесите свою лепту в развитие PiratBit!
    Комментировать посты могут только пользователи прошедшие не сложную регистрацию
    Показать сообщения:    

    Кэрри в большом городе через торрент
    Скачать бесплатно Кэрри в большом городе
    Кэрри в большом городе скачать торрент
    Кэрри в большом городе смотреть онлайн
    Cкачать фильм Кэрри в большом городе бесплатно
    Кэрри в большом городе скачать торрент в хорошем качестве
    Кэрри в большом городе смотреть онлайн бесплатно в хорошем качестве


    Вы не можете начинать темы
    Вы не можете отвечать на сообщения
    Вы не можете редактировать свои сообщения
    Вы не можете удалять свои сообщения
    Вы не можете голосовать в опросах
    Вы не можете прикреплять файлы к сообщениям
    Вы можете скачивать файлы