Всегда рабочее зеркало без VPN и Proxy просто перед .vidak.icu напиши любое слово или цифру, Пример http://5m1f.vidak.icu

MVO

MVO

1 сезон

1

1 сезон

iTunes

1 сезон

13

1 сезон

Deluxe

pack

Рекомендуем

Repack

30

ВАЖНО

RePack

MK11

RePack

jed

RePack

fifa19

RePack

RDR2

RePack

NEED FOR SPEED™ PAYBACK

Кинопоиск HD

6 сезон

 Острые козырьки 6 сезон

Все сериалы

все сериалы на PB.wtf

RePack

FAR CRY 5
  
Magnet ссылка

Семья Сопрано / Клан Сопрано / The Sopranos / Сезон: 2 / Серии: 1-13 из 13 (Дэвид Чейз) [2000, криминал, драма, BDRip 720p] 2x[AVO] (Дмитрий «Goblin» Пучков, Юрий Сербин) + [MVO] (Amedia) pb.wtf

Семья Сопрано через торрент pb.wtf

Размер: 51 GB | Добавлен: 2 года 2 мес. назад | Торрент скачан:12 раз
Смотреть онлайн Семья Сопрано | Скачать    Ребята, помогите собрать деньги на оплату серверов!!!

04-06-2020 18:00 Семья Сопрано Скачать торрент  

Сопрано – Второй сезон
The Sopranos – Second Season
Год выпуска: 2000
Страна: США | HBO :wow:
Жанр: криминальная драма
Продолжительность: 01-13 из 13 эпизодов по ~60 минут

Перевод #1: Авторский (одноголосый, закадровый) Дмитрий «Goblin» Пучков (2020)
Перевод #2: Авторский (одноголосый, закадровый) Юрий Сербин
Перевод #3: Профессиональный (многоголосый, закадровый) Студия «Новамедиа» по заказу Amedia
Субтитры: русские (по переводу Amedia), английские
Режиссеры: Дэвид Чейз, Аллен Култер, Тим Ван Паттен, Стив Бушеми и другие

В ролях: Джеймс Гандолфини, Эди Фалко, Майкл Империоли, Лоррейн Бракко, Стив Ван Зандт, Тони Сирико, Винсент Пасторе, Роберт Айлер, Джеми-Линн Сиглер, Эйда Туртурро, Доминик Кианези, Дреа де Маттео, Нэнси Маршан, Стив Бушеми, Джон Вентимилья, Дэн Грималди, Кэтрин Нардуччи и другие
Описание: Повседневная жизнь современного Крестного отца: его мысли — стремительны, действия — решительны, а юмор — черен. Мафиозный босс Северного Джерси Тони Сопрано успешно справляется с проблемами «Семьи».

Но вот собственная семья немного подкачала: дети от рук отбились, брак — под угрозой, мамаша — пилит. Он надеется на помощь психиатра, но как тому рассказать обо всех своих проблемах, если связан омертой — обетом молчания, нарушать который нельзя под страхом смерти?


Исходник: The Sopranos S02 1080p EUR Blu-ray AVC DTS-HD MA 5.1
Качество: BDRip 720p
Семпл: The.Sopranos.Sample.720p.BluRay.3xRus.Eng.HBO.mkv

Контейнер: MKV
Видео: x264, 1280x720 (16:9), 23.976 fps, ~8500 kbps avg, ~0.385 bit/pixel
Аудио #1: 48 kHz, ac3, 2.0 ch, 192 kbps avg |Одноголосый закадровый, Дмитрий Пучков|
Аудио #2: 48 kHz, ac3, 5.1 ch, 384 kbps avg |Одноголосый закадровый, Юрий Сербин|
Аудио #3: 48 kHz, ac3, 5.1 ch, 640 kbps avg |Многоголосый закадровый, Amedia|
Аудио #4: 48 kHz, ac3, 5.1 ch, 640 kbps avg |Оригинал, английский|
Аудио #5: 48 kHz, ac3, 2.0 ch, 192 kbps avg |Комментарии, английский|
Субтитры: русские (по переводу Amedia), английские
Чаптеры: оригинальные неподписанные с bluray
Реклама: отсутствует

Цитата:

  • В сериале присутствуют сцены насилия и жестокости, сексуального характера, употребления алкоголя и наркотиков.
  • В переводах Д. Пучкова и Ю. Сербина присутствует ненормативная лексика.

  • Перевод Д. Пучкова новый, вышедший в 2020 году. C 31 января каждую пятницу на wink и amediateka будет выходить по два эпизода. Обновление раздачи по выходым. За шестым сезоном возвращайтесь в декабре.
  • Перевод Ю. Сербина доступен благодаря пользователям hdclub (r.i.p.), rutracker и e180. На данный момент переведено 3 сезона.

  • Just when I thought I was out, they pull me back in!


  • скриншот  скриншот  скриншот  
    S02E01. Guy Walks Into a Psychiatrist's Office
    S02E02. Do Not Resuscitate
    S02E03. Toodle-Fucking-Oo
    S02E04. Commendatori
    S02E05. Big Girls Don't Cry
    S02E06. The Happy Wanderer
    S02E07. D-Girl
    S02E08. Full Leather Jacket
    S02E09. From Where to Eternity
    S02E10. Bust-Out
    S02E11. House Arrest
    S02E12. The Knight in White Satin Armor
    S02E13. Funhouse
    General
    Complete name : The.Sopranos.S02E01.720p.BluRay.3xRus.Eng.HBO.mkv
    Format : Matroska
    Format version : Version 4 / Version 2
    File size : 3.58 GiB
    Duration : 49 min 27 s
    Overall bit rate : 10.4 Mb/s
    Encoded date : UTC 2020-03-15 17:52:01
    Writing application : mkvmerge v6.6.0 ('The Edge Of The In Between') built on Dec 1 2013 17:55:00
    Writing library : libebml v1.3.0 + libmatroska v1.4.1

    Video
    ID : 1
    Format : AVC
    Format/Info : Advanced Video Codec
    Format profile : [email protected]
    Format settings : CABAC / 9 Ref Frames
    Format settings, CABAC : Yes
    Format settings, ReFrames : 9 frames
    Codec ID : V_MPEG4/ISO/AVC
    Duration : 49 min 27 s
    Bit rate : 8 500 kb/s
    Width : 1 280 pixels
    Height : 720 pixels
    Display aspect ratio : 16:9
    Frame rate mode : Constant
    Frame rate : 23.976 (24000/1001) FPS
    Color space : YUV
    Chroma subsampling : 4:2:0
    Bit depth : 8 bits
    Scan type : Progressive
    Bits/(Pixel*Frame) : 0.385
    Stream size : 2.86 GiB (80%)
    Writing library : x264 core 159 r2991 1771b55
    Encoding settings : cabac=1 / ref=9 / deblock=1:-3:-3 / analyse=0x3:0x113 / me=umh / subme=11 / psy=1 / psy_rd=1.00:0.00 / mixed_ref=1 / me_range=32 / chroma_me=1 / trellis=2 / 8x8dct=1 / cqm=0 / deadzone=21,11 / fast_pskip=0 / chroma_qp_offset=-3 / threads=12 / lookahead_threads=3 / sliced_threads=0 / nr=0 / decimate=1 / interlaced=0 / bluray_compat=0 / constrained_intra=0 / bframes=12 / b_pyramid=2 / b_adapt=2 / b_bias=0 / direct=3 / weightb=1 / open_gop=0 / weightp=2 / keyint=230 / keyint_min=23 / scenecut=40 / intra_refresh=0 / rc_lookahead=40 / rc=2pass / mbtree=0 / bitrate=8500 / ratetol=1.0 / qcomp=0.60 / qpmin=0 / qpmax=69 / qpstep=4 / cplxblur=20.0 / qblur=0.5 / vbv_maxrate=50000 / vbv_bufsize=62500 / nal_hrd=none / filler=0 / ip_ratio=1.40 / pb_ratio=1.30 / aq=3:0.80
    Language : English
    Default : Yes
    Forced : No

    Audio #1
    ID : 2
    Format : AC-3
    Format/Info : Audio Coding 3
    Codec ID : A_AC3
    Duration : 49 min 27 s
    Bit rate mode : Constant
    Bit rate : 192 kb/s
    Channel(s) : 2 channels
    Channel positions : Front: L R
    Sampling rate : 48.0 kHz
    Frame rate : 31.250 FPS (1536 SPF)
    Bit depth : 16 bits
    Compression mode : Lossy
    Stream size : 67.9 MiB (2%)
    Title : DD 2.0 @ 192 kbps - Goblin
    Language : Russian
    Service kind : Complete Main
    Default : Yes
    Forced : No

    Audio #2
    ID : 3
    Format : AC-3
    Format/Info : Audio Coding 3
    Codec ID : A_AC3
    Duration : 49 min 27 s
    Bit rate mode : Constant
    Bit rate : 384 kb/s
    Channel(s) : 6 channels
    Channel positions : Front: L C R, Side: L R, LFE
    Sampling rate : 48.0 kHz
    Frame rate : 31.250 FPS (1536 SPF)
    Bit depth : 16 bits
    Compression mode : Lossy
    Stream size : 136 MiB (4%)
    Title : DD 5.1 @ 384 kbps - Serbin
    Language : Russian
    Service kind : Complete Main
    Default : No
    Forced : No

    Audio #3
    ID : 4
    Format : AC-3
    Format/Info : Audio Coding 3
    Codec ID : A_AC3
    Duration : 49 min 27 s
    Bit rate mode : Constant
    Bit rate : 640 kb/s
    Channel(s) : 6 channels
    Channel positions : Front: L C R, Side: L R, LFE
    Sampling rate : 48.0 kHz
    Frame rate : 31.250 FPS (1536 SPF)
    Bit depth : 16 bits
    Compression mode : Lossy
    Stream size : 226 MiB (6%)
    Title : DD 5.1 @ 640 kbps - Amedia
    Language : Russian
    Service kind : Complete Main
    Default : No
    Forced : No

    Audio #4
    ID : 5
    Format : AC-3
    Format/Info : Audio Coding 3
    Codec ID : A_AC3
    Duration : 49 min 27 s
    Bit rate mode : Constant
    Bit rate : 640 kb/s
    Channel(s) : 6 channels
    Channel positions : Front: L C R, Side: L R, LFE
    Sampling rate : 48.0 kHz
    Frame rate : 31.250 FPS (1536 SPF)
    Bit depth : 16 bits
    Compression mode : Lossy
    Stream size : 226 MiB (6%)
    Title : DD 5.1 @ 640 kbps - Original
    Language : English
    Service kind : Complete Main
    Default : No
    Forced : No

    Text #1
    ID : 6
    Format : UTF-8
    Codec ID : S_TEXT/UTF8
    Codec ID/Info : UTF-8 Plain Text
    Title : Amedia
    Language : Russian
    Default : No
    Forced : No

    Text #2
    ID : 7
    Format : UTF-8
    Codec ID : S_TEXT/UTF8
    Codec ID/Info : UTF-8 Plain Text
    Language : English
    Default : No
    Forced : No

    Text #3
    ID : 8
    Format : UTF-8
    Codec ID : S_TEXT/UTF8
    Codec ID/Info : UTF-8 Plain Text
    Title : SDH
    Language : English
    Default : No
    Forced : No

    Menu
    00:00:00.000 : en:00:00:00.000
    00:01:39.725 : en:00:01:39.725
    00:06:34.394 : en:00:06:34.394
    00:14:48.930 : en:00:14:48.930
    00:22:42.278 : en:00:22:42.278
    00:32:35.996 : en:00:32:35.996
    00:41:56.514 : en:00:41:56.514
    00:48:24.401 : en:00:48:24.401
    pb.wtf



    Скачать Семья Сопрано через торрент https://c.radikal.ru/c15/2003/42/3a9b851609e9.jpg Скачать, смотреть онлайн Семья Сопрано бесплантно в хорошем качестве Описание: Повседневная жизнь современного Крестного отца: его мысли — стремительны, действия — решительны, а юмор — черен. Мафиозный босс ... 10 10 1
    Торрент: Зарегистрирован [2020-06-04 18:00] · скачан: 12 раз
    Статус: √ проверено
    Размер: 51 GB
    Как cкачать? Как скачать Семья Сопрано через торрент | UTorrent

    % Раздел Тема Автор DL S | L
    Клан Сопрано [ 1.39 GB ] Клан Сопрано / The Sopranos [2001 HDRip] [AVO] killermax2013 Скачать
    1 | 0

    28-11-2019 20:33  

    Отключить вcю реклaмy на сайте

      Дорогой пользователь! Огромная просьба, поблагодарите релизера, оцените раздачу и оставьте свои комментарий, если Вы скачали Семья Сопрано через торрент бесплатно!
      Комментировать посты могут только пользователи прошедшие не сложную регистрацию
      Показать сообщения:    

      Семья Сопрано через торрент
      Скачать бесплатно Семья Сопрано
      Семья Сопрано скачать торрент
      Семья Сопрано смотреть онлайн
      Cкачать фильм Семья Сопрано бесплатно
      Семья Сопрано скачать торрент в хорошем качестве
      Семья Сопрано смотреть онлайн бесплатно в хорошем качестве


      Вы не можете начинать темы
      Вы не можете отвечать на сообщения
      Вы не можете редактировать свои сообщения
      Вы не можете удалять свои сообщения
      Вы не можете голосовать в опросах
      Вы не можете прикреплять файлы к сообщениям
      Вы можете скачивать файлы