Ссылка на приватное зеркало всего за 1$. Внимание количество ограничено!!!

iTunes

iTunes

iTunes

1

iTunes

iTunes

iTunes

iTunes

iTunes

30
pack

$ от Little Big

ВАЖНО

!!Акция!!

Alien_RageХит недели

RePack

Resident Evil 21

ИГРА 18+

pack

RePack

jed

!!Акция!!

Alien_Rage

RePack

fifa19

RePack

Assassins Creed: Odyssey

RePack

NEED FOR SPEED™ PAYBACK

4 сезон

9 сезон

Бесстыжие 9 сезон

Все сериалы

все сериалы на PB.wtf

RePack

FAR CRY 5
  

Момент истины / Last Moment of Clarity (Колин Крисель, Джеймс Крисель) [2020, Триллер, WEB-DLRip-AVC] VO [zamez] - ExKinoRay pb.wtf

Момент истины через торрент pb.wtf

Раздают: 2 [ 0 KB/s ]
Размер: 2.44 GB | Добавлен: 1 мес. 5 д. назад | Торрент скачан:87 раз
Скачать  

05-06-2020 05:37 Момент истины Скачать торрент  

Момент истины / Last Moment of Clarity
Год выпуска: 2020
Страна: США / Metalwork Pictures
Жанр: Триллер
Продолжительность: 01:30:12
Перевод: Любительский одноголосый | zamez
Субтитры: Русские (Full)

Режиссер: Колин Крисель, Джеймс Крисель

rating

В ролях: Самара Уивинг, Брайан Кокс, Карли Чаикин, Удо Кир, Хэл Озсэн, Павел Лычников, Николь Ансари-Кокс, Алекс Фернандес, Зак Эйвери, Карл Эдрард

Описание: Сэм потерял девушку при трагических обстоятельствах. Он уже четыре года пытается найти виновных в её гибели, но однажды в кино замечает актрису похожую на любимую.

Без рекламы и мата!

Качество: WEB-DLRip-AVC
Формат: MKV
Видео кодек: H.264
Аудио кодек: AC3
Видео: MPEG-4 AVC, 3417 Кбит/с, 1024x424
Аудио#1: Русский (AC3, 6 ch, 448 Кбит/с) AVO (zamez)

Релиз от:
Общее
Уникальный идентификатор : 242569939103337476805421407667999085777 (0xB67D455BD8F15091A6BA80C6ECAA14D1)
Полное имя : D:\Раздача\Moment.Istiny.2020.WEB-DLRip-AVC.ExKinoRay.mkv
Формат : Matroska
Версия формата : Version 4 / Version 2
Размер файла : 2,44 Гбайт
Продолжительность : 1 ч. 30 м.
Общий поток : 3867 Кбит/сек
Название фильма : Last Moment of Clarity.2020.WEB-DLRip-AVC.grab777 & ExKinoRay
Дата кодирования : UTC 2020-06-04 20:00:37
Программа кодирования : mkvmerge v7.3.0 ('Nouages') 64bit built on Oct 22 2014 18:53:34
Библиотека кодирования : libebml v1.3.0 + libmatroska v1.4.1

Видео
Идентификатор : 1
Формат : AVC
Формат/Информация : Advanced Video Codec
Профиль формата : High@L4.1
Настройки формата : CABAC / 12 Ref Frames
Параметр CABAC формата : Да
Параметр RefFrames формата : 12 кадров
Идентификатор кодека : V_MPEG4/ISO/AVC
Продолжительность : 1 ч. 30 м.
Битрейт : 3417 Кбит/сек
Ширина : 1024 пикселя
Высота : 424 пикселя
Соотношение сторон : 2,40:1
Соотношение сторон в оригинале : 2,40:1
Режим частоты кадров : Переменный
Частота кадров : 23,976 (23976/1000) кадра/сек
Частота кадров в оригинале : 23,976 (24000/1001) кадра/сек
Цветовое пространство : YUV
Субдискретизация насыщенности : 4:2:0
Битовая глубина : 8 бит
Тип развёртки : Прогрессивная
Бит/(Пиксели*Кадры) : 0.328
Размер потока : 2,15 Гбайт (88%)
Заголовок : Rip by grab777
Библиотека кодирования : x264 core 148 r2665M a01e339
Настройки программы : cabac=1 / ref=12 / deblock=1:-2:-2 / analyse=0x3:0x113 / me=umh / subme=10 / psy=1 / psy_rd=1.00:0.15 / mixed_ref=1 / me_range=32 / chroma_me=1 / trellis=2 / 8x8dct=1 / cqm=0 / deadzone=21,11 / fast_pskip=1 / chroma_qp_offset=-3 / threads=5 / lookahead_threads=1 / sliced_threads=0 / nr=0 / decimate=1 / interlaced=0 / bluray_compat=0 / constrained_intra=0 / bframes=10 / b_pyramid=2 / b_adapt=2 / b_bias=0 / direct=3 / weightb=1 / open_gop=0 / weightp=2 / keyint=230 / keyint_min=23 / scenecut=40 / intra_refresh=0 / rc_lookahead=40 / rc=crf / mbtree=0 / crf=18.5 / qcomp=0.60 / qpmin=0 / qpmax=69 / qpstep=4 / vbv_maxrate=30000 / vbv_bufsize=40000 / crf_max=0.0 / nal_hrd=none / filler=0 / ip_ratio=1.40 / pb_ratio=1.30 / aq=1:1.00
Язык : English
Default : Да
Forced : Нет
Цветовой диапазон : Limited
Основные цвета : BT.709
Характеристики трансфера : BT.709
Коэффициенты матрицы : BT.709

Аудио
Идентификатор : 2
Формат : AC-3
Формат/Информация : Audio Coding 3
Параметр Endianness формата : Big
Идентификатор кодека : A_AC3
Продолжительность : 1 ч. 30 м.
Вид битрейта : Постоянный
Битрейт : 448 Кбит/сек
Каналы : 6 каналов
Расположение каналов : Front: L C R, Side: L R, LFE
Частота : 48,0 КГц
Частота кадров : 31,250 кадров/сек (1536 SPF)
Битовая глубина : 16 бит
Метод сжатия : С потерями
Размер потока : 289 Мбайт (12%)
Заголовок : AVO (zamez)
Язык : Russian
ServiceKind/String : Complete Main
Default : Да
Forced : Да

Текст
Идентификатор : 3
Формат : UTF-8
Идентификатор кодека : S_TEXT/UTF8
Идентификатор кодека/Информация : UTF-8 Plain Text
Продолжительность : 1 ч. 22 м.
Битрейт : 64 бит/сек
ElementCount : 785
Размер потока : 38,9 Кбайт (0%)
Язык : Russian
Default : Нет
Forced : Нет

pb.wtf



Скачать Момент истины через торрент http://pic1.kartinco.top/images/12/r95ai.jpg Скачать фильм Момент истины через торрент бесплантно в хорошем качестве Описание: Сэм потерял девушку при трагических обстоятельствах. Он уже четыре года пытается найти виновных в её гибели, но однажды в кино ... 7.8 10 4
Торрент: Зарегистрирован [2020-06-05 05:37] · скачан: 87 раз
Статус: T временная
Размер: 2.44 GB
Как cкачать? Как скачать Момент истины через торрент | qTorrent

28-11-2019 20:33  

Отключить всю рекламу на сайте

19-06-2020 18:11 Момент истины Скачать торрент  

Без рекламы и мата! а где же с матом?)pb.wtf



    Дорогой пользователь! Огромная просьба, поблагодарите релизера, оцените раздачу и оставьте свои комментарий, если Вы скачали Момент истины через торрент бесплатно! Внесите свою лепту в развитие PiratBit!
    Комментировать посты могут только пользователи прошедшие не сложную регистрацию
    Показать сообщения:    

    Момент истины через торрент
    Скачать бесплатно Момент истины
    Момент истины скачать торрент
    Момент истины смотреть онлайн
    Cкачать фильм Момент истины бесплатно
    Момент истины скачать торрент в хорошем качестве
    Момент истины смотреть онлайн бесплатно в хорошем качестве


    Вы не можете начинать темы
    Вы не можете отвечать на сообщения
    Вы не можете редактировать свои сообщения
    Вы не можете удалять свои сообщения
    Вы не можете голосовать в опросах
    Вы не можете прикреплять файлы к сообщениям
    Вы можете скачивать файлы