Всегда рабочее зеркало без VPN и Proxy просто перед .vidak.icu напиши любое слово или цифру, Пример http://yo8j.vidak.icu

MVO

2 сезон

2 сезон

1

1 сезон

iTunes

2 сезон

13

1 сезон

Deluxe

pack

Рекомендуем

Пиратка

30

ВАЖНО

RePack

MK11

RePack

jed

RePack

fifa19

RePack

RDR2

RePack

NEED FOR SPEED™ PAYBACK

Кинопоиск HD

6 сезон

 Острые козырьки 6 сезон

Все сериалы

все сериалы на PB.wtf

RePack

FAR CRY 5

Anonymous, нам критически не хватает 5601 руб. на оплату серверов и переферии за Апрель, помоги нам пожалуйста, вся надежда только на тебя. В благодарность мы отключим тебе всю рекламу на сайте!

×
  
Magnet ссылка

Омерзительная восьмерка / The Hateful Eight (Квентин Тарантино) [2015 г., вестерн, криминал, триллер, драма, детектив,, BDRip 1080p / 60 FPS, AVO Матвеев] pb.wtf

Омерзительная восьмерка через торрент pb.wtf

Размер: 5.44 GB | Добавлен: 1 год 11 мес. назад | Торрент скачан:71 раз
Смотреть онлайн Омерзительная восьмерка | Скачать    Ребята, помогите собрать деньги на оплату серверов!!!

06-06-2020 15:31 Омерзительная восьмерка Скачать торрент  

Омерзительная восьмерка / The Hateful EightГод выпуска: 2015
Страна: США
Жанр: вестерн, криминал, триллер, драма, детектив,
Продолжительность: 02:47:45
Перевод: Авторский (одноголосый, закадровый) | Алексей Матвеев
Субтитры: Русские | Алексей Матвеев

Режиссер: Квентин Тарантино

Бюджет: $44 000 000
Премьера в мире: 7 декабря 2015

rating

В ролях: Курт Рассел, Сэмюэл Л. Джексон, Тим Рот, Майкл Мэдсен, Дженнифер Джейсон Ли, Уолтон Гоггинс, Демиан Бичир, Брюс Дерн, Джеймс Паркс, Дэна Гурье

Описание: США после Гражданской войны. Легендарный охотник за головами Джон Рут по кличке Вешатель конвоирует заключенную. По пути к ним прибиваются еще несколько путешественников. Снежная буря вынуждает компанию искать укрытие в лавке на отшибе, где уже расположилось весьма пестрое общество: генерал конфедератов, мексиканец, ковбой… И один из них — не тот, за кого себя выдает.

Качество: BDRip 1080p / 60 FPS
Формат: MKV
Видео кодек: H.265
Аудио кодек: AC3
Видео: V_MPEGH/ISO/HEVC; 1920x696 (2.759); 4001 Kbps; 59,940 fps; 0,050 bpp
Аудио: русский; AC3; 640 Kbps; CBR; 6 ch

Релиз от: DD2D3
скриншот   скриншот   скриншот   скриншот   скриншот  

General
Unique ID : 187566589737123567949027752535907422790 (0x8D1C02DC4ED44E9B96794449E974D246)
Complete name : D:\Омерзительная восьмерка - The Hateful Eight (2015) BDRip - HEVC 1080p 10bit 60 FPS.mkv
Format : Matroska
Format version : Version 4
File size : 5.44 GiB
Duration : 2 h 47 min
Overall bit rate : 4 647 kb/s
Movie name : Rip by from DD2D3
Encoded date : UTC 2020-06-06 11:58:48
Writing application : mkvmerge v10.0.0 ('To Drown In You') 32bit
Writing library : libebml v1.3.4 + libmatroska v1.4.5
Attachments : poster

Video
ID : 1
Format : HEVC
Format/Info : High Efficiency Video Coding
Format profile : Main 10@L4.1@Main
Codec ID : V_MPEGH/ISO/HEVC
Duration : 2 h 47 min
Bit rate : 4 002 kb/s
Width : 1 920 pixels
Height : 696 pixels
Display aspect ratio : 2.759
Frame rate mode : Constant
Frame rate : 59.940 (60000/1001) FPS
Color space : YUV
Chroma subsampling : 4:2:0
Bit depth : 10 bits
Bits/(Pixel*Frame) : 0.050
Stream size : 4.69 GiB (86%)
Writing library : x265 2.3+33-0b7d54dbb71a87a0:[Windows][MSVC 1800][64 bit] 10bit: KG7x [x265.ru]
Encoding settings : cpuid=1173503 / frame-threads=2 / numa-pools=4 / wpp / no-pmode / no-pme / no-psnr / no-ssim / log-level=2 / input-csp=1 / input-res=1920x696 / interlace=0 / total-frames=603333 / level-idc=41 / high-tier=1 / uhd-bd=0 / ref=3 / no-allow-non-conformance / no-repeat-headers / annexb / no-aud / no-hrd / info / hash=0 / no-temporal-layers / open-gop / min-keyint=25 / keyint=250 / bframes=4 / b-adapt=2 / b-pyramid / bframe-bias=0 / rc-lookahead=20 / lookahead-slices=0 / scenecut=40 / no-intra-refresh / ctu=64 / min-cu-size=8 / no-rect / no-amp / max-tu-size=32 / tu-inter-depth=1 / tu-intra-depth=1 / limit-tu=0 / rdoq-level=0 / dynamic-rd=0.00 / no-ssim-rd / signhide / no-tskip / nr-intra=0 / nr-inter=0 / no-constrained-intra / strong-intra-smoothing / max-merge=2 / limit-refs=3 / no-limit-modes / me=1 / subme=2 / merange=57 / temporal-mvp / weightp / no-weightb / no-analyze-src-pics / deblock=0:0 / no-sao / no-sao-non-deblock / rd=3 / no-early-skip / no-rskip / no-fast-intra / no-tskip-fast / no-cu-lossless / no-b-intra / rdpenalty=0 / psy-rd=4.00 / psy-rdoq=0.00 / no-rd-refine / analysis-mode=0 / no-lossless / cbqpoffs=0 / crqpoffs=0 / rc=abr / bitrate=4000 / qcomp=0.60 / qpstep=1 / stats-write=0 / stats-read=2 / cplxblur=20.0 / qblur=0.5 / ipratio=1.10 / pbratio=1.00 / aq-mode=0 / aq-strength=0.00 / no-cutree / zone-count=0 / no-strict-cbr / qg-size=64 / rc-grain / qpmax=69 / qpmin=0 / sar=1 / overscan=0 / videoformat=5 / range=0 / colorprim=2 / transfer=2 / colormatrix=2 / chromaloc=0 / display-window=0 / max-cll=0,0 / min-luma=0 / max-luma=1023 / log2-max-poc-lsb=8 / vui-timing-info / vui-hrd-info / slices=1 / opt-qp-pps / opt-ref-list-length-pps / no-multi-pass-opt-rps / scenecut-bias=0.05 / no-opt-cu-delta-qp / no-aq-motion / no-hdr / no-hdr-opt / refine-level=5 / no-limit-sao
Default : Yes
Forced : No

Audio
ID : 2
Format : AC-3
Format/Info : Audio Coding 3
Commercial name : Dolby Digital
Codec ID : A_AC3
Duration : 2 h 47 min
Bit rate mode : Constant
Bit rate : 640 kb/s
Channel(s) : 6 channels
Channel layout : L R C LFE Ls Rs
Sampling rate : 48.0 kHz
Frame rate : 31.250 FPS (1536 SPF)
Compression mode : Lossy
Stream size : 768 MiB (14%)
Title : AVO [A.Matveev]
Language : Russian
Service kind : Complete Main
Default : No
Forced : No

Text
ID : 3
Format : UTF-8
Codec ID : S_TEXT/UTF8
Codec ID/Info : UTF-8 Plain Text
Duration : 2 h 42 min
Bit rate : 89 b/s
Count of elements : 1741
Stream size : 107 KiB (0%)
Title : Matveev
Language : Russian
Default : No
Forced : No

Menu
00:00:00.000 : en:Chapter 01
00:04:33.523 : en:Chapter 02
00:11:36.112 : en:Chapter 03
00:22:01.362 : en:Chapter 04
00:35:02.434 : en:Chapter 05
00:43:31.901 : en:Chapter 06
00:52:12.212 : en:Chapter 07
00:59:04.499 : en:Chapter 08
01:08:30.315 : en:Chapter 09
01:16:10.858 : en:Chapter 10
01:25:18.447 : en:Chapter 11
01:35:06.492 : en:Chapter 12
01:42:20.176 : en:Chapter 13
01:50:33.335 : en:Chapter 14
01:59:32.499 : en:Chapter 15
02:06:43.054 : en:Chapter 16
02:13:26.624 : en:Chapter 17
02:19:59.725 : en:Chapter 18
02:24:17.023 : en:Chapter 19
02:34:08.114 : en:Chapter 20
02:39:38.027 : en:Chapter 21
02:43:22.751 : en:Chapter 22

pb.wtf



Скачать Омерзительная восьмерка через торрент https://funkyimg.com/i/35t1n.jpg Скачать, смотреть онлайн Омерзительная восьмерка бесплантно в хорошем качестве Описание: США после Гражданской войны. Легендарный охотник за головами Джон Рут по кличке Вешатель конвоирует заключенную. По пути к ним ... 8.6 10 8
Info! Золотая раздача, скачанное не засчитывается.
Торрент: Зарегистрирован [2020-06-06 15:31] · скачан: 71 раз
Статус: √ проверено
Размер: 5.44 GB
Как cкачать? Как скачать Омерзительная восьмерка через торрент | UTorrent

% Раздел Тема Автор DL S | L
Фильмы (Blu-ray, BD-Remux, HDDVD) [ 65.73 GB ] Омерзительная восьмерка / The Hateful Eight [2015 BDRemux 1080p] DUB + 6xAVO sheker187 Скачать
1 | 0
Фильмы [HD 720p, 1080p] (Хороший звук DUB, MVO) [ 10.72 GB ] Омерзительная восьмёрка / The Hateful Eight [2015 BDRip-HEVC 1080p ] 4xAVO+DUB [] bober100 Скачать
1 | 0
Фильмы 2015 [DVDrip, WEB-DLRip, HDrip] [ 1.46 GB ] Омерзительная восьмерка / The Hateful Eight [2015 BDRip-AVC] DUB potroks Скачать
3 | 0
Ultra HD (UHD: 2K, 4K, 8K) — видео сверхвысокой чёткости [ 40.44 GB ] Омерзительная восьмёрка / The Hateful Eight [2015 UHD WEBRip 2160p] DUB [] bober100 Скачать
2 | 0
Фильмы [HD 720p, 1080p] (Хороший звук DUB, MVO) [ 15.52 GB ] Омерзительная восьмерка / The Hateful Eight [2015 BDRip 720p] 2xDUB+MVO+3xAVO bober100 Скачать
1 | 0
Фильмы [HD 720p, 1080p] (Хороший звук DUB, MVO) [ 9.46 GB ] Омерзительная восьмерка / The Hateful Eight [2015 BDRip 720p] DUB AVO potroks Скачать
1 | 0
Фильмы 2015 [DVDrip, WEB-DLRip, HDrip] [ 2.92 GB ] Омерзительная восьмерка / The Hateful Eight [2015 BDRip-AVC] DUB potroks Скачать
1 | 0

28-11-2019 20:33  

Отключить всю рекламу на сайте

06-06-2020 17:37 Омерзительная восьмерка Скачать торрент  

Фильм хорош,особенно концовка)pb.wtf



06-06-2020 18:47 Омерзительная восьмерка Скачать торрент  

Судя по скринам ,фильм без черных полос? Если нет ,то добавьте их в скриншоты ,дабы не сбивать с толку пользователейpb.wtf



06-06-2020 19:04 Омерзительная восьмерка Скачать торрент  

поддайте скорости!pb.wtf



    Дорогой пользователь! Огромная просьба, поблагодарите релизера, оцените раздачу и оставьте свои комментарий, если Вы скачали Омерзительная восьмерка через торрент бесплатно!
    Комментировать посты могут только пользователи прошедшие не сложную регистрацию
    Показать сообщения:    

    Омерзительная восьмерка через торрент
    Скачать бесплатно Омерзительная восьмерка
    Омерзительная восьмерка скачать торрент
    Омерзительная восьмерка смотреть онлайн
    Cкачать фильм Омерзительная восьмерка бесплатно
    Омерзительная восьмерка скачать торрент в хорошем качестве
    Омерзительная восьмерка смотреть онлайн бесплатно в хорошем качестве


    Вы не можете начинать темы
    Вы не можете отвечать на сообщения
    Вы не можете редактировать свои сообщения
    Вы не можете удалять свои сообщения
    Вы не можете голосовать в опросах
    Вы не можете прикреплять файлы к сообщениям
    Вы можете скачивать файлы