Ссылка на приватное зеркало нашего сайта всего за 1$. Внимание количество ограничено!!!

2 сезон

iTunes

1 сезон

1

iTunes

iTunes

iTunes

1 сезон

RePack

30

ИГРА 18+

pack

ВАЖНО

!!Акция!!

Alien_RageХит недели

RePack

MK11
pack

Забери бонус

RePack

jed

!!Акция!!

Alien_Rage

RePack

fifa19

RePack

Assassins Creed: Odyssey

RePack

NEED FOR SPEED™ PAYBACK

4 сезон

9 сезон

Бесстыжие 9 сезон

Все сериалы

все сериалы на PB.wtf

RePack

FAR CRY 5
  

Выбор матери / Сезон: 1 / Серии: 1-16 из 16 (Мила Погребиская) [2019, Мелодрама, WEB-DLRip] pb.wtf

Выбор матери через торрент pb.wtf

Размер: 9.31 GB | Добавлен: 4 мес. 14 д. назад | Торрент скачан:25 раз
Скачать  

06-06-2020 16:25 Выбор матери Скачать торрент  

Выбор матери
Год выпуска: 2019
Страна: Украина
Жанр: Мелодрама
Продолжительность: ~ 00:48:00
Перевод: Не требуется
Субтитры: отсутствуют

Режиссер: Мила Погребиская



В ролях: Валерия Ходос, Ева Шевченко-Головко, Ада Роговцева, Артемий Егоров, Ольга Радчук, Дарья Творонович, Анастасия Цымбалару, Петр Ниневский, Светлана Зельбет, Тельман Рагимов, Олеся Островская, Александр Сугак, Константин Данилюк, Сергей Фролов, Таисия-Оксана Щурук, Юрий Ребрик, Сергей Басок, Игорь Качур, Борис Георгиевский, Галина Корнеева

Описание: Адаптация японского формата "Мама". Это история учительницы Елены, которая решает защитить свою ученицу Инну. 8-летняя девочка регулярно подвергается истязаниям и может погибнуть от рук собственной матери и отчима. После безуспешных обращений к властям Елена понимает, что никто, кроме нее, не в силах защитить Инну. Она совершает побег вместе с девочкой и планирует покинуть страну. Но ей мешает мать девочки, ее жестокий отчим и цепочка роковых обстоятельств...

Качество: WEB-DLRip
Формат: AVI

Видео: 720x400 (1.80:1), 25 fps, XviD build 73 ~1600 kbps avg, 0.22 bit/pixel
Аудио: 48.0 kHz, AC3 Dolby Digital, 2/0 (L,R) ch, ~ 192 kbps
скриншот  скриншот  скриншот  скриншот  скриншот  

General
Complete name: C:01.Выбор матери.(2019).WEB-DLRip.by.Nicodem.Files-x.avi
Format: AVI
Format/Info: Audio Video Interleave
File size: 630 MiB
Duration: 48mn 35s
Overall bit rate: 1 813 Kbps
Writing application: VirtualDubMod 1.5.10.3 | www.virtualdub-fr.org || (build 2550/release)
Writing library: VirtualDubMod build 2550/release

Video
ID: 0
Format: MPEG-4 Visual
Format profile: Advanced Simple@L5
Format settings, BVOP: 1
Format settings, QPel: No
Format settings, GMC: No warppoints
Format settings, Matrix: Custom
Codec ID: XVID
Codec ID/Hint: XviD
Duration: 48mn 35s
Bit rate: 1 612 Kbps
Width: 720 pixels
Height: 400 pixels
Display aspect ratio: 16:9
Frame rate: 25.000 fps
Color space: YUV
Chroma subsampling: 4:2:0
Bit depth: 8 bits
Scan type: Progressive
Compression mode: Lossy
Bits/(Pixel*Frame): 0.224
Stream size: 560 MiB (89%)
Writing library: XviD 73

Audio
ID: 1
Format: AC-3
Format/Info: Audio Coding 3
Mode extension: CM (complete main)
Codec ID: 2000
Duration: 48mn 35s
Bit rate mode: Constant
Bit rate: 192 Kbps
Channel(s): 2 channels
Channel positions: Front: L R
Sampling rate: 48.0 KHz
Bit depth: 16 bits
Compression mode: Lossy
Stream size: 66.7 MiB (11%)
Alignment: Split accross interleaves
Interleave, duration: 40 ms (1.00 video frame)
Interleave, preload duration: 500 ms

pb.wtf



Скачать Выбор матери через торрент https://i90.fastpic.ru/big/2019/0925/d7/ef4657a10abd0730952d466285cb71d7.jpg Скачать фильм Выбор матери через торрент бесплантно в хорошем качестве Описание: Адаптация японского формата "Мама". Это история учительницы Елены, которая решает защитить свою ученицу Инну. 8-летняя девочка ... 10 10 2
Торрент: Зарегистрирован [2020-06-06 16:25] · скачан: 25 раз
Статус: √ проверено
Размер: 9.31 GB
Как cкачать? Как скачать Выбор матери через торрент | qTorrent

% Раздел Тема Автор DL S | L
Наши сериалы [ 26.72 GB ] Выбор матери / Сезон: 1 / Серии: 1-16 из 16 [2019 Мело WEB-DL 1080p] bober100 Скачать
1 | 0
Наши сериалы [ 18.93 GB ] Выбор матери / Сезон: 1 / Серии: 1-16 из 16 [2019 Мело WEB-DL 720p] bober100 Скачать
1 | 0
Наши сериалы [ 9.26 GB ] Выбор матери / Сезон: 1 / Серии: 1-16 из 16 [2019 Мело WEB-DLRip-AVC] bober100 Скачать
1 | 0

28-11-2019 20:33  

Отключить всю рекламу на сайте

    Дорогой пользователь! Огромная просьба, поблагодарите релизера, оцените раздачу и оставьте свои комментарий, если Вы скачали Выбор матери через торрент бесплатно! Внесите свою лепту в развитие PiratBit!
    Комментировать посты могут только пользователи прошедшие не сложную регистрацию
    Показать сообщения:    

    Выбор матери через торрент
    Скачать бесплатно Выбор матери
    Выбор матери скачать торрент
    Выбор матери смотреть онлайн
    Cкачать фильм Выбор матери бесплатно
    Выбор матери скачать торрент в хорошем качестве
    Выбор матери смотреть онлайн бесплатно в хорошем качестве


    Вы не можете начинать темы
    Вы не можете отвечать на сообщения
    Вы не можете редактировать свои сообщения
    Вы не можете удалять свои сообщения
    Вы не можете голосовать в опросах
    Вы не можете прикреплять файлы к сообщениям
    Вы можете скачивать файлы