2 сезон

iTunes

MVO

1

2 сезон

iTunes

iTunes

1 сезон

RePack

30

Ultimate

ВАЖНО

ИГРА 18+

pack

RePack

MK11
pack

Легкие деньги

RePack

jed

RePack

fifa19

RePack

RDR2

RePack

NEED FOR SPEED™ PAYBACK

4 сезон

9 сезон

Бесстыжие 9 сезон

Все сериалы

все сериалы на PB.wtf

RePack

FAR CRY 5

Anonymous, добрый вечер, мы не успеваем собрать деньги на оплату серверов за декабрь и январь, помогите нам пожалуйста в это трудное время. В качестве благодарности мы отключим Вам всю рекламу на сайте (укажите свой ник в строку Ваше имя)!

×
  
Magnet ссылка

Отряд «Дельта» / The Delta Force (Менахем Голан) [1986 г., Боевик, триллер, драма, приключения, военный, BDRip 720p / 60 FPS, Профессиональный (многоголосый)] от R.G. HD-Films pb.wtf

Отряд «Дельта» через торрент pb.wtf

Раздают: 1 [ 0 KB/s ]
Размер: 4.87 GB | Добавлен: 7 мес. назад | Торрент скачан:25 раз
Скачать  

07-06-2020 07:34 Отряд «Дельта» Скачать торрент  

Отряд «Дельта» / The Delta Force
Год выпуска: : 1986
Страна: : США, Израиль
Жанр: : Боевик, триллер, драма, приключения, военный
Продолжительность: 02:09:13
Перевод: MVO ( "R5" )
Субтитры: English

Режиссер: Менахем Голан

Бюджет: $12 000 000
Премьера в мире: 14 февраля 1986

rating

В ролях: Чак Норрис, Ли Марвин, Мартин Болсам, Джои Бишоп, Роберт Форстер, Лэйни Кэзан, Джордж Кеннеди, Ханна Шигула, Сьюзэн Страсберг, Бо Свенсон, Роберт Вон, Шелли Уинтерс, Уильям Уоллес, Чарльз Грант, Джерри Вайнсток, Марвин Фридман, Боб Левит, Келли Голдберг, Крис Эллиа, Джерри Лэзарас, Натали Рот, Джерри Химэн, Хэнк Лейнингер, Ховард Джексон, Эрик Норрис, Аарон Каплан, Кэролайн Лангфорд, Иегуда Эфрони, Давид Менахем, Шайке Офир, Ури Гавриел

Сюжет фильма: Когда опасные террористы захватывают американских туристов и переправляют их в Бейрут, президент направляет отряд «Дельта» — бригаду первоклассных бойцов под командованием полковника Ника Александера и майора Скотта Маккоя, чтобы освободить их. Вскоре после переброски на Средний Восток элитный спасательный отряд получает сведения, что женщин и детей отпустили, но мужчин банда фанатичных преступников по — прежнему удерживает в здании школы, расположенном на берегу моря. Сметая все на своем пути, сквозь огонь и взрывы отряд «Дельта» прорывается в лагерь террористов и, не оставляя пленных, освобождает заложников. Однако на этом миссия не заканчивается. Бандиты успели перевезти нескольких заложников в Тегеран, и теперь в битве за их спасение время работает против Александера и Маккоя. Они обязаны успеть — ведь на кону жизнь людей и честь родины.


Качество видео: BDRip 720p / 60 FPS
Формат: MKV
Видео кодек: H.264
Аудио кодек: AC3
Видео : x264, 1280 x 720 ( 16:9 ), 5203 kbps, 60,000 fps, ( 0.094 bpp)
Аудио : Русский, AC-3, 48.0 KHz, 2 ch, 192 Kbps
Релиз от:

скриншот   скриншот   скриншот   скриншот   скриншот   скриншот  Автор рипа: slaventi-69
Общее
Уникальный идентификатор : 223256684553742000601754124005244606825 (0xA7F5AC64611A614EA2755EB250F71969)
Полное имя : F:\The.Delta.Force.(1986).BDRip.720p.(60 Fps).mkv
Формат : Matroska
Версия формата : Version 4
Размер файла : 4,87 Гбайт
Продолжительность : 2 ч. 9 м.
Общий поток : 5399 Кбит/сек
Название фильма : Отряд «Дельта» / The Delta Force (1986) BDRip 720p (60 Fps)
Дата кодирования : UTC 2020-06-01 15:21:30
Программа кодирования : mkvmerge v12.0.0 ('Trust / Lust') 64bit
Библиотека кодирования : libebml v1.3.4 + libmatroska v1.4.5

Видео
Идентификатор : 1
Формат : AVC
Формат/Информация : Advanced Video Codec
Профиль формата : High@L4.1
Настройки формата : CABAC / 8 Ref Frames
Параметр CABAC формата : Да
Параметр RefFrames формата : 8 кадров
Идентификатор кодека : V_MPEG4/ISO/AVC
Продолжительность : 2 ч. 9 м.
Битрейт : 5203 Кбит/сек
Ширина : 1280 пикселей
Высота : 720 пикселей
Соотношение сторон : 16:9
Режим частоты кадров : Постоянный
Частота кадров : 60,000 кадров/сек
Цветовое пространство : YUV
Субдискретизация насыщенности : 4:2:0
Битовая глубина : 8 бит
Тип развёртки : Прогрессивная
Бит/(Пиксели*Кадры) : 0.094
Размер потока : 4,69 Гбайт (96%)
Заголовок : slaventi-69 ( R.G. HD-Films | 60 fps )
Библиотека кодирования : x264 core 130 r2273 b3065e6
Настройки программы : cabac=1 / ref=8 / deblock=1:0:0 / analyse=0x3:0x113 / me=umh / subme=9 / psy=1 / psy_rd=1.00:0.00 / mixed_ref=1 / me_range=26 / chroma_me=1 / trellis=2 / 8x8dct=1 / cqm=0 / deadzone=21,11 / fast_pskip=0 / chroma_qp_offset=-2 / threads=6 / lookahead_threads=1 / sliced_threads=0 / nr=0 / decimate=1 / interlaced=0 / bluray_compat=0 / constrained_intra=0 / bframes=5 / b_pyramid=2 / b_adapt=2 / b_bias=0 / direct=3 / weightb=1 / open_gop=0 / weightp=2 / keyint=600 / keyint_min=25 / scenecut=40 / intra_refresh=0 / rc=crf / mbtree=0 / crf=19.7 / qcomp=0.60 / qpmin=0 / qpmax=69 / qpstep=4 / ip_ratio=1.40 / pb_ratio=1.30 / aq=1:1.00
Язык : English
Default : Да
Forced : Нет

Аудио
Идентификатор : 2
Формат : AC-3
Формат/Информация : Audio Coding 3
Коммерческое название : Dolby Digital
Идентификатор кодека : A_AC3
Продолжительность : 2 ч. 9 м.
Вид битрейта : Постоянный
Битрейт : 192 Кбит/сек
Каналы : 2 канала
Channel layout : L R
Частота : 48,0 КГц
Частота кадров : 31,250 кадров/сек (1536 SPF)
Битовая глубина : 16 бит
Метод сжатия : С потерями
Размер потока : 177 Мбайт (4%)
Заголовок : MVO ( "R5" )
Язык : Russian
ServiceKind/String : Complete Main
Default : Да
Forced : Нет

Текст
Идентификатор : 3
Формат : UTF-8
Идентификатор кодека : S_TEXT/UTF8
Идентификатор кодека/Информация : UTF-8 Plain Text
Продолжительность : 2 ч. 4 м.
Битрейт : 44 бит/сек
ElementCount : 1229
Размер потока : 40,7 Кбайт (0%)
Заголовок : Full
Язык : English
Default : Нет
Forced : Нет

Меню
00:00:00.000 : en:Chapter 01
00:05:19.277 : en:Chapter 02
00:08:26.214 : en:Chapter 03
00:16:05.381 : en:Chapter 04
00:23:02.756 : en:Chapter 05
00:30:23.822 : en:Chapter 06
00:32:08.552 : en:Chapter 07
00:38:23.051 : en:Chapter 08
00:42:15.992 : en:Chapter 09
00:46:34.500 : en:Chapter 10
00:48:43.879 : en:Chapter 11
00:56:52.117 : en:Chapter 12
01:02:27.369 : en:Chapter 13
01:04:41.753 : en:Chapter 14
01:09:29.207 : en:Chapter 15
01:14:18.412 : en:Chapter 16
01:17:04.078 : en:Chapter 17
01:24:02.955 : en:Chapter 18
01:31:08.546 : en:Chapter 19
01:35:22.884 : en:Chapter 20
01:38:59.392 : en:Chapter 21
01:45:49.969 : en:Chapter 22
01:52:56.645 : en:Chapter 23
01:59:09.726 : en:Chapter 24

Просьба к переливающим на другие сайты, в оформлении указывайте пожалуйста авторство группы R.G. HD-Films pb.wtf



Скачать Отряд «Дельта» через торрент http://lostpic.net/orig_images/b/f/2/bf23723a6e9e713a5645cd67c587131c.png Скачать фильм Отряд «Дельта» через торрент бесплантно в хорошем качестве В ролях: Чак Норрис, Ли Марвин, Мартин Болсам, Джои Бишоп, Роберт Форстер, Лэйни Кэзан, Джордж Кеннеди, Ханна Шигула, Сьюзэн Страсберг, Бо ... 10 10 4
Торрент: Зарегистрирован [2020-06-07 07:34] · скачан: 25 раз
Статус: √ проверено
Размер: 4.87 GB
Как cкачать? Как скачать Отряд «Дельта» через торрент | UTorrent

28-11-2019 20:33  

Отключить всю рекламу на сайте

07-06-2020 19:05 Отряд «Дельта» Скачать торрент  

Спасибо большое за фильм!!! Единственный с Норрисом который бы хотелось иметь в коллекции. Теперь он у меня есть, благодарю!!!pb.wtf



    Дорогой пользователь! Огромная просьба, поблагодарите релизера, оцените раздачу и оставьте свои комментарий, если Вы скачали Отряд «Дельта» через торрент бесплатно! Внесите свою лепту в развитие PiratBit!
    Комментировать посты могут только пользователи прошедшие не сложную регистрацию
    Показать сообщения:    

    Отряд «Дельта» через торрент
    Скачать бесплатно Отряд «Дельта»
    Отряд «Дельта» скачать торрент
    Отряд «Дельта» смотреть онлайн
    Cкачать фильм Отряд «Дельта» бесплатно
    Отряд «Дельта» скачать торрент в хорошем качестве
    Отряд «Дельта» смотреть онлайн бесплатно в хорошем качестве


    Вы не можете начинать темы
    Вы не можете отвечать на сообщения
    Вы не можете редактировать свои сообщения
    Вы не можете удалять свои сообщения
    Вы не можете голосовать в опросах
    Вы не можете прикреплять файлы к сообщениям
    Вы можете скачивать файлы