Ссылка на приватное зеркало нашего сайта всего за 1$. Внимание количество ограничено!!!

2 сезон

iTunes

1 сезон

1

2 сезон

2 сезон

iTunes

1 сезон

RePack

30

Новинка

ВАЖНО

ИГРА 18+

pack

RePack

MK11
pack

Забери бонус

RePack

jed

!!Акция!!

Alien_Rage

RePack

fifa19

RePack

Assassins Creed: Odyssey

RePack

NEED FOR SPEED™ PAYBACK

4 сезон

9 сезон

Бесстыжие 9 сезон

Все сериалы

все сериалы на PB.wtf

RePack

FAR CRY 5
  

Смерть Сталина / The Death of Stalin (Армандо Ианнуччи / Armando Iannucci) [2017, политическая сатира, BDRemux 1080p] [Dub] + [AVO] (Сербин) + [DVO] (Кубик в кубе) + [Ukr] pb.wtf

Смерть Сталина через торрент pb.wtf

Размер: 28.18 GB | Добавлен: 5 мес. 28 д. назад | Торрент скачан:15 раз
Скачать  

07-06-2020 08:30 Смерть Сталина Скачать торрент  

Смерть СталинаThe Death of Stalin
Год выхода: 2017
Выпущено: Франция, Великобритания, Бельгия
Жанр: политическая сатира
Продолжительность: 01:46:34
Перевод 1: Профессиональный (дублированный)
Перевод 2: Авторский (одноголосый закадровый) Юрий Сербин
Перевод 3: Профессиональный (двухголосый закадровый) Кубик в кубе [ненормативная лексика]
Субтитры: русские (3 вида), английские (Full, SDH), украинские, грузинские, киргизские, румынские (молдавские)

Режиссер: Армандо Ианнуччи / Armando Iannucci
В ролях: Ольга Куриленко, Андреа Райзборо, Руперт Френд, Джейсон Айзекс, Стив Бушеми, Джеффри Тэмбор, Ричард Брэйк, Пэдди Консидайн, Майкл Пэйлин, Джонатан Арис
О фильме: Загородная дача Сталина. Пока советский народ оправлялся от послевоенной разрухи, партийная верхушка гуляла на одном из многочисленных сталинских пиров. Сам хозяин восседал во главе стола. Наевшись и напившись до отвала, высокопоставленные гости разбрелись по углам. Вождь народов перед сном решил почитать анонимное послание, переданное посыльным, и в припадке хохота падает замертво.

Ленту Смерть Сталина по праву можно считать первым громким режиссерским проектом А. Ианнуччи на широком экране. Режиссер не слишком заботился об исторической правде, нарочито гротескно и схематично изображая исторические события. Тонкую политическую сатиру воплотили на экране блестящие актеры, подобранные таким образом, чтобы вместе с портретным сходством передать карикатурный образ, прорисованный постановщиками картины.

При всей комичности истории в картине Смерть Сталина прослеживается серьезный подход к достоверности локаций: ленту снимали среди прочего в Москве и Киеве. Также всерьез рассматривался вопрос об игре актеров на языке оригинала. Фильм Ианнуччи вполне заслуженно получил награды Британской киноакадемии в номинациях за лучший сценарий и лучший фильм года. Вполне ожидаемо, что лента Ианнуччи была встречена негодованием, прежде всего в России, но всё это сыграло лишь на руку создателям.


✰ семпл ✰
Качество: BDRemux 1080p | Source: The.Death.of.Stalin.2017.COMPLETE.BLURAY-PCH
Формат: MKV

Видео: MPEG-4 AVC Video / 30000 kbps / 1920x1080p / 24 fps / 16:9 / High Profile 4.1
Аудио 1: Русский, 48.0 KHz, AAC LC, 6 ch, 512 kbps | Дубляж
Аудио 2: Русский, 48.0 KHz, 16-bit, DTS-HD MA, 6 ch, 1802 kbps / Core: 1509 kbps | Закадровый, Юрий Сербин
Аудио 3: Русский, 48.0 KHz, 16-bit, DTS-HD MA, 6 ch, 1823 kbps / Core: 1509 kbps | Закадровый, Кубик в кубе [ненормативная лексика]
Аудио 4: Украинский, 48.0 KHz, AC3, 6 ch, 640 kbps | Закадровый
Аудио 5: Грузинский, 48.0 KHz, AC3, 6 ch, 640 kbps | Закадровый
Аудио 6: English, 48.0 KHz, 16-bit, DTS-HD MA, 6 ch, 1769 kbps / Core: 1509 kbps | Original 5.1-mix
Аудио 7: English, 48.0 KHz, 16-bit, FLAC, 2 ch, 467 kbps | Original stereo mix
Аудио 8: English, 48.0 KHz, AC3, 2 ch, 192 kbps | Audio commentary with director and writer Armando Iannucci and writers David Schneider, Ian Martin and Peter Fellows
General
Unique ID : 336258753983411238417208920068383371731 (0xFCF91490E4BBF162B21D22C53414F1D3)
Complete name : С:\The.Death.of.Stalin.2017.BDRemux.1080p.Rutracker.mkv
Format : Matroska
Format version : Version 4
File size : 28.2 GiB
Duration : 1 h 46 min
Overall bit rate mode : Variable
Overall bit rate : 37.9 Mb/s
Movie name : The.Death.of.Stalin.2017.BDRemux.1080p.Rutracker
Encoded date : UTC 2020-06-07 07:05:21
Writing application : mkvmerge v43.0.0 ('The Quartermaster') 64-bit
Writing library : libebml v1.3.10 + libmatroska v1.5.2
Cover : Yes
Attachments : cover.jpg

Video
ID : 1
Format : AVC
Format/Info : Advanced Video Codec
Format profile : High@L4.1
Format settings : CABAC / 4 Ref Frames
Format settings, CABAC : Yes
Format settings, Reference frames : 4 frames
Format settings, GOP : M=3, N=24
Codec ID : V_MPEG4/ISO/AVC
Duration : 1 h 46 min
Bit rate mode : Variable
Bit rate : 30.0 Mb/s
Maximum bit rate : 35.0 Mb/s
Width : 1 920 pixels
Height : 1 080 pixels
Display aspect ratio : 16:9
Frame rate mode : Constant
Frame rate : 24.000 FPS
Standard : NTSC
Color space : YUV
Chroma subsampling : 4:2:0
Bit depth : 8 bits
Scan type : Progressive
Bits/(Pixel*Frame) : 0.603
Stream size : 22.3 GiB (79%)
Default : Yes
Forced : No
Color range : Limited
Color primaries : BT.709
Transfer characteristics : BT.709
Matrix coefficients : BT.709

Audio #1
ID : 2
Format : AAC LC
Format/Info : Advanced Audio Codec Low Complexity
Codec ID : A_AAC-2
Duration : 1 h 46 min
Bit rate : 512 kb/s
Channel(s) : 6 channels
Channel layout : C L R Ls Rs LFE
Sampling rate : 48.0 kHz
Frame rate : 46.875 FPS (1024 SPF)
Compression mode : Lossy
Stream size : 390 MiB (1%)
Title : Дубляж
Language : Russian
Default : Yes
Forced : No

Audio #2
ID : 3
Format : DTS XLL
Format/Info : Digital Theater Systems
Commercial name : DTS-HD Master Audio
Codec ID : A_DTS
Duration : 1 h 46 min
Bit rate mode : Variable
Bit rate : 1 802 kb/s
Channel(s) : 6 channels
Channel layout : C L R Ls Rs LFE
Sampling rate : 48.0 kHz
Frame rate : 93.750 FPS (512 SPF)
Bit depth : 16 bits
Compression mode : Lossless
Stream size : 1.34 GiB (5%)
Title : Юрий Сербин
Language : Russian
Default : No
Forced : No

Audio #3
ID : 4
Format : DTS XLL
Format/Info : Digital Theater Systems
Commercial name : DTS-HD Master Audio
Codec ID : A_DTS
Duration : 1 h 46 min
Bit rate mode : Variable
Bit rate : 1 823 kb/s
Channel(s) : 6 channels
Channel layout : C L R Ls Rs LFE
Sampling rate : 48.0 kHz
Frame rate : 93.750 FPS (512 SPF)
Bit depth : 16 bits
Compression mode : Lossless
Stream size : 1.36 GiB (5%)
Title : Кубик в кубе [ненормативная лексика]
Language : Russian
Default : No
Forced : No

Audio #4
ID : 5
Format : AC-3
Format/Info : Audio Coding 3
Commercial name : Dolby Digital
Codec ID : A_AC3
Duration : 1 h 46 min
Bit rate mode : Constant
Bit rate : 640 kb/s
Channel(s) : 6 channels
Channel layout : L R C LFE Ls Rs
Sampling rate : 48.0 kHz
Frame rate : 31.250 FPS (1536 SPF)
Compression mode : Lossy
Stream size : 488 MiB (2%)
Title : Студія "AAA-Sound"
Language : Ukrainian
Service kind : Complete Main
Default : No
Forced : No

Audio #5
ID : 6
Format : AC-3
Format/Info : Audio Coding 3
Commercial name : Dolby Digital
Codec ID : A_AC3
Duration : 1 h 46 min
Bit rate mode : Constant
Bit rate : 640 kb/s
Channel(s) : 6 channels
Channel layout : L R C LFE Ls Rs
Sampling rate : 48.0 kHz
Frame rate : 31.250 FPS (1536 SPF)
Compression mode : Lossy
Stream size : 488 MiB (2%)
Language : Georgian
Service kind : Complete Main
Default : No
Forced : No

Audio #6
ID : 7
Format : DTS XLL
Format/Info : Digital Theater Systems
Commercial name : DTS-HD Master Audio
Codec ID : A_DTS
Duration : 1 h 46 min
Bit rate mode : Variable
Bit rate : 1 769 kb/s
Channel(s) : 6 channels
Channel layout : C L R Ls Rs LFE
Sampling rate : 48.0 kHz
Frame rate : 93.750 FPS (512 SPF)
Bit depth : 16 bits
Compression mode : Lossless
Stream size : 1.32 GiB (5%)
Title : Original 5.1-mix
Language : English
Default : No
Forced : No

Audio #7
ID : 8
Format : FLAC
Format/Info : Free Lossless Audio Codec
Codec ID : A_FLAC
Duration : 1 h 46 min
Bit rate mode : Variable
Bit rate : 467 kb/s
Channel(s) : 2 channels
Channel layout : L R
Sampling rate : 48.0 kHz
Frame rate : 11.719 FPS (4096 SPF)
Bit depth : 16 bits
Compression mode : Lossless
Stream size : 356 MiB (1%)
Title : Original stereo mix
Writing library : libFLAC 1.2.1 (UTC 2007-09-17)
Language : English
Default : No
Forced : No

Audio #8
ID : 9
Format : AC-3
Format/Info : Audio Coding 3
Commercial name : Dolby Digital
Codec ID : A_AC3
Duration : 1 h 46 min
Bit rate mode : Constant
Bit rate : 192 kb/s
Channel(s) : 2 channels
Channel layout : L R
Sampling rate : 48.0 kHz
Frame rate : 31.250 FPS (1536 SPF)
Compression mode : Lossy
Stream size : 146 MiB (1%)
Title : Audio commentary with director and writer Armando Iannucci and writers David Schneider, Ian Martin and Peter Fellows
Language : English
Service kind : Complete Main
Default : No
Forced : No

Text #1
ID : 10
Format : UTF-8
Codec ID : S_TEXT/UTF8
Codec ID/Info : UTF-8 Plain Text
Duration : 1 h 38 min
Bit rate : 138 b/s
Count of elements : 1713
Stream size : 100 KiB (0%)
Title : Официальные субтитры
Language : Russian
Default : No
Forced : No

Text #2
ID : 11
Format : UTF-8
Codec ID : S_TEXT/UTF8
Codec ID/Info : UTF-8 Plain Text
Duration : 1 h 38 min
Bit rate : 140 b/s
Count of elements : 1718
Stream size : 101 KiB (0%)
Title : Focs
Language : Russian
Default : No
Forced : No

Text #3
ID : 12
Format : UTF-8
Codec ID : S_TEXT/UTF8
Codec ID/Info : UTF-8 Plain Text
Duration : 1 h 38 min
Bit rate : 142 b/s
Count of elements : 1711
Stream size : 103 KiB (0%)
Title : PhysKids
Language : Russian
Default : No
Forced : No

Text #4
ID : 13
Format : UTF-8
Codec ID : S_TEXT/UTF8
Codec ID/Info : UTF-8 Plain Text
Duration : 1 h 36 min
Bit rate : 85 b/s
Count of elements : 1706
Stream size : 60.6 KiB (0%)
Title : Full
Language : English
Default : No
Forced : No

Text #5
ID : 14
Format : UTF-8
Codec ID : S_TEXT/UTF8
Codec ID/Info : UTF-8 Plain Text
Duration : 1 h 39 min
Bit rate : 89 b/s
Count of elements : 1842
Stream size : 65.1 KiB (0%)
Title : SDH
Language : English
Default : No
Forced : No

Text #6
ID : 15
Format : UTF-8
Codec ID : S_TEXT/UTF8
Codec ID/Info : UTF-8 Plain Text
Duration : 1 h 38 min
Bit rate : 138 b/s
Count of elements : 1711
Stream size : 99.5 KiB (0%)
Language : Ukrainian
Default : No
Forced : No

Text #7
ID : 16
Format : UTF-8
Codec ID : S_TEXT/UTF8
Codec ID/Info : UTF-8 Plain Text
Duration : 1 h 38 min
Bit rate : 206 b/s
Count of elements : 1711
Stream size : 149 KiB (0%)
Language : Georgian
Default : No
Forced : No

Text #8
ID : 17
Format : UTF-8
Codec ID : S_TEXT/UTF8
Codec ID/Info : UTF-8 Plain Text
Duration : 1 h 38 min
Bit rate : 151 b/s
Count of elements : 1711
Stream size : 109 KiB (0%)
Language : Kirghiz
Default : No
Forced : No

Text #9
ID : 18
Format : UTF-8
Codec ID : S_TEXT/UTF8
Codec ID/Info : UTF-8 Plain Text
Duration : 1 h 38 min
Bit rate : 73 b/s
Count of elements : 1486
Stream size : 53.3 KiB (0%)
Language : Romanian
Default : No
Forced : No

Menu
00:00:00.000 : en:01
00:06:38.875 : en:02
00:13:02.583 : en:03
00:19:53.125 : en:04
00:29:06.125 : en:05
00:33:58.250 : en:06
00:40:22.417 : en:07
00:45:28.000 : en:08
00:50:35.000 : en:09
00:58:40.750 : en:10
01:03:23.667 : en:11
01:12:31.750 : en:12
01:17:42.917 : en:13
01:24:49.000 : en:14
01:33:33.708 : en:15
01:39:25.583 : en:16
скриншот   скриншот   скриншот  
pb.wtf



Скачать Смерть Сталина через торрент https://c.radikal.ru/c18/2006/0c/067fe7274b54.png Скачать фильм Смерть Сталина через торрент бесплантно в хорошем качестве О фильме: Загородная дача Сталина. Пока советский народ оправлялся от послевоенной разрухи, партийная верхушка гуляла на одном из ... 7 10 6
Торрент: Зарегистрирован [2020-06-07 08:30] · скачан: 15 раз
Статус: √ проверено
Размер: 28.18 GB
Как cкачать? Как скачать Смерть Сталина через торрент | qTorrent

% Раздел Тема Автор DL S | L
Фильмы [HD 720p, 1080p] (Хороший звук DUB, MVO) [ 9.63 GB ] Смерть Сталина / The Death of Stalin [2017 политическая сатира BDRip 1080p] + [MVO] + [AVO] + [VO] + [Ukr] killermax2013 Скачать
1 | 0
Фильмы 2017 (Звук TS, Cam, VO, DVO) [ 1.46 GB ] Смерть Сталина / The Death of Stalin [2017 BDRip] DVO [Кубик в кубе] bober100 Скачать
4 | 0
Фильмы (Blu-ray, BD-Remux, HDDVD) [ 24.99 GB ] Смерть Сталина / The Death of Stalin [2017 BD Remux 1080p] AVO [Яроцкий] bober100 Скачать
1 | 0
Фильмы 2017 [DVDrip, WEB-DLRip, HDrip] (DUB, MVO) [ 2.18 GB ] Смерть Сталина / The Death of Stalin [2017 BDRip] killermax2013 Скачать
1 | 0
T R.G. Resident & PiratVoice - Фильмы, Видео [ 1.45 GB ] Смерть Сталина / The Death of Stalin [2017 HDRip от R.G. Resident] MVO [HDrezka Studio] -Lexx- Скачать
2 | 0

28-11-2019 20:33  

Отключить всю рекламу на сайте

    Дорогой пользователь! Огромная просьба, поблагодарите релизера, оцените раздачу и оставьте свои комментарий, если Вы скачали Смерть Сталина через торрент бесплатно! Внесите свою лепту в развитие PiratBit!
    Комментировать посты могут только пользователи прошедшие не сложную регистрацию
    Показать сообщения:    

    Смерть Сталина через торрент
    Скачать бесплатно Смерть Сталина
    Смерть Сталина скачать торрент
    Смерть Сталина смотреть онлайн
    Cкачать фильм Смерть Сталина бесплатно
    Смерть Сталина скачать торрент в хорошем качестве
    Смерть Сталина смотреть онлайн бесплатно в хорошем качестве


    Вы не можете начинать темы
    Вы не можете отвечать на сообщения
    Вы не можете редактировать свои сообщения
    Вы не можете удалять свои сообщения
    Вы не можете голосовать в опросах
    Вы не можете прикреплять файлы к сообщениям
    Вы можете скачивать файлы