Ссылка на приватное зеркало всего за 1$. Внимание количество ограничено!!!

iTunes

iTunes

iTunes

1

iTunes

iTunes

iTunes

iTunes

iTunes

30
pack

$ от Little Big

ВАЖНО

!!Акция!!

Alien_RageХит недели

RePack

Resident Evil 21

ИГРА 18+

pack

RePack

jed

!!Акция!!

Alien_Rage

RePack

fifa19

RePack

Assassins Creed: Odyssey

RePack

NEED FOR SPEED™ PAYBACK

4 сезон

9 сезон

Бесстыжие 9 сезон

Все сериалы

все сериалы на PB.wtf

RePack

FAR CRY 5
  

Космические войска / Space Force / Сезон: 1 / Серии: 1-10 из 10 (Пол Кинг, Том Маршалл, Ди Риис) [2020, комедия, WEB-DLRip] DVO [Кубик в Кубе] pb.wtf

Космические войска через торрент pb.wtf

Раздают: 1 [ 402 KB/s ] Качают: 1 [ 0 KB/s ]
Размер: 6.23 GB | Добавлен: 3 д. назад | Торрент скачан:10 раз
Скачать  

07-06-2020 15:33 Космические войска Скачать торрент  

✘ Космические войска | Space Force ✘
«Space will never see us coming»

Год выпуска: 2020
Страна: США
Жанр: комедия
Продолжительность: ~ 00:36:00 серия
Перевод: Профессиональный (двухголосый) | Кубик в Кубе
Субтитры: Английские

Режиссер: Пол Кинг, Том Маршалл, Ди Риис

rating

В ролях: Стив Карелл (Steve Carell), Джон Малкович (John Malkovich), Бен Шварц (Ben Schwartz), Диана Сильверс (Diana Silvers), Тоуни Ньюсом (Tawny Newsome), Джимми О. Ян (Jimmy O. Yang), Дон Лейк (Don Lake), Оуэн Дэниелс (Owen Daniels), Гектор Дюран (Hector Duran), Дэн Баккедаль (Dan Bakkedahl), Спенсер Хаус (Spencer House), Лиза Кудроу (Lisa Kudrow), Джессика Ст. Клэр (Jessica St. Clair), Пунам Патель (Punam Patel), Алексей Воробьев

Описание: Правительства разных стран приходят к решению создать новый вид вооруженных сил: космические войска. Астронавты, военные и великие умы США приступают к выполнению этого ответственного задания. Руководит операцией генерал Марк Нейрд (Стив Карелл), помогает ему главный научный советник проекта, надменный ученый Эдриан Мэллори (Джон Малкович), правильный имидж создает циничный PR-менеджер Тони Скарапидуччи (Бен Шварц), а критические замечания вносит сторонний наблюдатель от России Юрий «Бобби» Телатович (Алексей Воробьев).

Качество: WEB-DLRip
Формат: AVI

Видео: XviD, 704 x 320 (2.200), 23.976 fps, ~2000 kbps, ~0.37 Bits/Pixel
Аудио#1 Rus: AC-3, 48 kHz, 6 ch, 384 kbps | KvK|
Аудио#2 Eng: AC-3, 48 kHz, 6 ch, 384 kbps |Original|
скриншот  скриншот  скриншот  скриншот  

Общее
Полное имя : E:\_Сериалы\_Сериалы\Космические войска\Space.Force.S01.WEBRip.CasStudio\Space.Force.S01E01.WEBRip.KvK.CasStudio.avi
Формат : AVI
Формат/Информация : Audio Video Interleave
Размер файла : 705 Мбайт
Продолжительность : 35 м. 30 с.
Общий поток : 2 776 Кбит/сек
Название фильма : Space.Force.S01E01.The.Launch
Программа кодирования : VirtualDubMod 1.5.10.3 | www.virtualdub-fr.org || (build 2550/release)
Библиотека кодирования : VirtualDubMod build 2550/release

Видео
Идентификатор : 0
Формат : MPEG-4 Visual
Профиль формата : Advanced Simple@L5
Настройки формата : BVOP1
Параметр BVOP формата : 1
Параметр QPel формата : Нет
Параметр GMC формата : Без точки перехода
Параметр матрицы формата : Default (MPEG)
Идентификатор кодека : XVID
Идентификатор кодека/Подсказка : XviD
Продолжительность : 35 м. 30 с.
Битрейт : 1 994 Кбит/сек
Ширина : 704 пикселя
Высота : 320 пикселей
Соотношение сторон : 2,2:1
Частота кадров : 23,976 (24000/1001) кадра/сек
Цветовое пространство : YUV
Субдискретизация насыщенности : 4:2:0
Битовая глубина : 8 бит
Тип развёртки : Прогрессивная
Метод сжатия : С потерями
Бит/(Пиксели*Кадры) : 0.369
Размер потока : 506 Мбайт (72%)
Библиотека кодирования : XviD 67

Аудио #1
Идентификатор : 1
Формат : AC-3
Формат/Информация : Audio Coding 3
Коммерческое название : Dolby Digital
Идентификатор кодека : 2000
Продолжительность : 35 м. 30 с.
Вид битрейта : Постоянный
Битрейт : 384 Кбит/сек
Каналы : 6 каналов
Channel layout : L R C LFE Ls Rs
Частота : 48,0 КГц
Частота кадров : 31,250 кадров/сек (1536 SPF)
Метод сжатия : С потерями
Размер потока : 97,5 Мбайт (14%)
Выравнивание : Разделение по промежуткам
Продолжительность промежутка : 42 мс. (1,00 видеокадр)
Время предзагрузки промежутка : 500 мс.
Service kind : Complete Main

Аудио #2
Идентификатор : 2
Формат : AC-3
Формат/Информация : Audio Coding 3
Коммерческое название : Dolby Digital
Идентификатор кодека : 2000
Продолжительность : 35 м. 30 с.
Вид битрейта : Постоянный
Битрейт : 384 Кбит/сек
Каналы : 6 каналов
Channel layout : L R C LFE Ls Rs
Частота : 48,0 КГц
Частота кадров : 31,250 кадров/сек (1536 SPF)
Метод сжатия : С потерями
Размер потока : 97,5 Мбайт (14%)
Выравнивание : Разделение по промежуткам
Продолжительность промежутка : 42 мс. (1,00 видеокадр)
Время предзагрузки промежутка : 500 мс.
Service kind : Complete Main

Когда раздача ведётся путём добавления новых серий, при каждом добавлении создётся новый торрент. Чтобы начать докачку новой серии, пользователям необходимо сделать следующее:
(1) остановить скачивание,
(2) удалить старый торрент у себя из клиента (старые серии удалять не надо),
(3) скачать новый торрент и запустить его у себя в клиенте вместо старого, при этом указать клиенту путь в старую папку, куда и должно происходить скачивание новых серий.
Ваш клиент при этом должен произвести хеширование (проверку) старой папки (если не производит сам - помогите ему сделать это), и будет докачивать только те серии, которых у вас ещё нет. Старые серии при этом не удаляются, а продолжают раздаваться!
Eсли вы уже удалили старые серии, то предотвратить повторную закачку старых серий можно, отжав галочку в соответсвующих местах при запуске нового торрента. По возможности, желательно не удалять старые серии как можно дольше, чтобы релизер не столько продолжал раздавать старые серии, а смог сконцентрироваться на новых.
pb.wtf



Скачать Космические войска через торрент https://i1.imageban.ru/out/2020/06/02/c1e77ef0232f869877c101fe47f3c834.png Скачать фильм Космические войска через торрент бесплантно в хорошем качестве Описание: Правительства разных стран приходят к решению создать новый вид вооруженных сил: космические войска. Астронавты, военные и ... 9.2 10 6
Торрент: Зарегистрирован [2020-07-07 12:25] · скачан: 10 раз
Статус: √ проверено
Размер: 6.23 GB
Как cкачать? Как скачать Космические войска через торрент | qTorrent

% Раздел Тема Автор DL S | L
Зарубежные сериалы [ 21.52 GB ] Космические войска / Space Force / Сезон: 1 / Серии: 1-10 из 10 [2020 WEBRip 1080p] MVO [LostFilm] bober100 Скачать
1 | 1
Зарубежные сериалы [ 3.97 GB ] Космические войска / Space Force / Сезон: 1 / Серии: 1-10 из 10 [2020 WEBRip] MVO [LostFilm] bober100 Скачать
7 | 0
Зарубежные сериалы [ 12.63 GB ] Космические войска / Space Force / Сезон: 1 / Серии: 1-10 из 10 [2020 WEBRip 720p] [DVO] killermax2013 Скачать
2 | 0
Зарубежные сериалы [ 4.9 GB ] Космические войска / Space Force / Сезон: 1 / Серии: 1-10 из 10 [2020 WEB-DLRip-AVC] MVO [NewStudio] GEKADOL Скачать
1 | 0
Зарубежные сериалы [ 44.54 GB ] Космические войска / Space Force / Сезон: 1 / Серии: 1-10 из 10 [2020 UHD WEB-DL 2160p ] MVO [NewStudio] bober100 Скачать
1 | 0
Зарубежные сериалы [ 10.99 GB ] Космические войска / Space Force / Сезон: 1 / Серии: 1-10 из 10 [2020 WEBRip 1080p] [DVO] + [MVO] killermax2013 Скачать
1 | 0
Зарубежные сериалы [ 22.12 GB ] Космические войска / Space Force / Сезон: 1 / Серии: 1-10 из 10 [2020 WEB-DL 1080p] MVO [NewStudio] bober100 Скачать
3 | 1

28-11-2019 20:33  

Отключить всю рекламу на сайте

    Дорогой пользователь! Огромная просьба, поблагодарите релизера, оцените раздачу и оставьте свои комментарий, если Вы скачали Космические войска через торрент бесплатно! Внесите свою лепту в развитие PiratBit!
    Комментировать посты могут только пользователи прошедшие не сложную регистрацию
    Показать сообщения:    

    Космические войска через торрент
    Скачать бесплатно Космические войска
    Космические войска скачать торрент
    Космические войска смотреть онлайн
    Cкачать фильм Космические войска бесплатно
    Космические войска скачать торрент в хорошем качестве
    Космические войска смотреть онлайн бесплатно в хорошем качестве


    Вы не можете начинать темы
    Вы не можете отвечать на сообщения
    Вы не можете редактировать свои сообщения
    Вы не можете удалять свои сообщения
    Вы не можете голосовать в опросах
    Вы не можете прикреплять файлы к сообщениям
    Вы можете скачивать файлы