2 сезон

iTunes

MVO

1

2 сезон

iTunes

iTunes

1 сезон

RePack

30

Новинка

ВАЖНО

ИГРА 18+

pack

RePack

MK11
pack

Легкие деньги

RePack

jed

RePack

fifa19

RePack

RDR2

RePack

NEED FOR SPEED™ PAYBACK

4 сезон

9 сезон

Бесстыжие 9 сезон

Все сериалы

все сериалы на PB.wtf

RePack

FAR CRY 5

Anonymous, добрый вечер, мы не успеваем собрать деньги на оплату серверов за декабрь и январь, помогите нам пожалуйста в это трудное время. В качестве благодарности мы отключим Вам всю рекламу на сайте (укажите свой ник в строку Ваше имя)!

×
  
Magnet ссылка

Полицейский 2000 года / TC 2000 (Т.Дж. Скотт) [1993 г., Боевик, боевые искусства, фантастика, BDRip 720p / 60 FPS, AVO + DVO] от R.G. HD-Films pb.wtf

Полицейский 2000 года через торрент pb.wtf

Раздают: 3 [ 0 KB/s ]
Размер: 4.24 GB | Добавлен: 7 мес. назад | Торрент скачан:59 раз
Скачать  

07-06-2020 15:45 Полицейский 2000 года Скачать торрент  

Полицейский 2000 года / TC 2000
Год выпуска: : 1993
Страна: : Канада, США
Жанр: : Боевик, боевые искусства, фантастика
Продолжительность: 01:34:48
Перевод: AVO (А.Гаврилов)
Перевод: DVO (Ракурс, Екатеринбург Арт)

Режиссер: Т.Дж. Скотт

Премьера в мире: 18 августа 1993

rating

В ролях: Боло Йенг, Джалал Мерхи, Билли Блэнкс, Бобби Филлипс, Маттиас Хьюз, Келли Галлант, Гарри Мок, Рамсей Смит, Грегори Филпот

Сюжет фильма: Напарницу полицейского Джейсона Сторма, Зои, погибшую во время патрулирования выходов из подземного, обустроенного мира на мало пригодную для жизни поверхность Земли, превращают в абсолютно неуязвимого киборга-убийцу.
Джейсон узнает, что Зои запрограммирована взорвать бездействующую атомную станцию. Шеф полиции, возжелавший управлять всем миром, готов уничтожить вместе с преступниками все население Северной Америки. Для того, чтобы предотвратить катастрофу, Джейсон объединяет усилия с самым грозным и уважаемым боевиком одной из группировок, Сумаем…


Качество видео: BDRip 720p / 60 FPS
Формат: MKV
Видео кодек: H.264
Аудио кодек: AC3
Видео : x264, 1280 x 720 ( 16:9 ), 6022 kbps, 60,000 fps, ( 0.109 bpp)
Аудио : Русский, AC-3, 48.0 KHz, 2 ch, 192 Kbps AVO (А.Гаврилов)
Аудио : Русский, AC-3, 48.0 KHz, 2 ch, 192 Kbps DVO (Ракурс, Екатеринбург Арт)
Релиз от:

скриншот   скриншот   скриншот   скриншот   скриншот   скриншот  Автор рипа: slaventi-69
Общее
Уникальный идентификатор : 335466560931444446637164264397337449634 (0xFC60826ED819CCB2BD6E098DAF1ED4A2)
Полное имя : F:\TC.2000.(1993).BDRip.720p.(60 Fps).mkv
Формат : Matroska
Версия формата : Version 4
Размер файла : 4,24 Гбайт
Продолжительность : 1 ч. 34 м.
Общий поток : 6410 Кбит/сек
Название фильма : Полицейский 2000 года / TC 2000 (1993) BDRip 720p (60 Fps)
Дата кодирования : UTC 2020-06-04 15:35:12
Программа кодирования : mkvmerge v35.0.0 ('All The Love In The World') 64-bit
Библиотека кодирования : libebml v1.3.9 + libmatroska v1.5.2

Видео
Идентификатор : 1
Формат : AVC
Формат/Информация : Advanced Video Codec
Профиль формата : High@L4.1
Настройки формата : CABAC / 8 Ref Frames
Параметр CABAC формата : Да
Параметр RefFrames формата : 8 кадров
Идентификатор кодека : V_MPEG4/ISO/AVC
Продолжительность : 1 ч. 34 м.
Битрейт : 6022 Кбит/сек
Ширина : 1280 пикселей
Высота : 720 пикселей
Соотношение сторон : 16:9
Режим частоты кадров : Постоянный
Частота кадров : 60,000 кадров/сек
Цветовое пространство : YUV
Субдискретизация насыщенности : 4:2:0
Битовая глубина : 8 бит
Тип развёртки : Прогрессивная
Бит/(Пиксели*Кадры) : 0.109
Размер потока : 3,98 Гбайт (94%)
Заголовок : slaventi-69 ( R.G. HD-Films | 60 fps )
Библиотека кодирования : x264 core 130 r2273 b3065e6
Настройки программы : cabac=1 / ref=8 / deblock=1:0:0 / analyse=0x3:0x133 / me=umh / subme=9 / psy=1 / psy_rd=1.00:0.00 / mixed_ref=1 / me_range=32 / chroma_me=1 / trellis=2 / 8x8dct=1 / cqm=0 / deadzone=21,11 / fast_pskip=0 / chroma_qp_offset=-2 / threads=10 / lookahead_threads=2 / sliced_threads=0 / nr=0 / decimate=1 / interlaced=0 / bluray_compat=0 / constrained_intra=0 / bframes=5 / b_pyramid=2 / b_adapt=2 / b_bias=0 / direct=2 / weightb=1 / open_gop=0 / weightp=2 / keyint=600 / keyint_min=23 / scenecut=40 / intra_refresh=0 / rc=crf / mbtree=0 / crf=18.7 / qcomp=0.60 / qpmin=0 / qpmax=69 / qpstep=4 / ip_ratio=1.40 / pb_ratio=1.30 / aq=1:1.00
Язык : English
Default : Да
Forced : Нет

Аудио #1
Идентификатор : 2
Формат : AC-3
Формат/Информация : Audio Coding 3
Коммерческое название : Dolby Digital
Идентификатор кодека : A_AC3
Продолжительность : 1 ч. 34 м.
Вид битрейта : Постоянный
Битрейт : 192 Кбит/сек
Каналы : 2 канала
Channel layout : L R
Частота : 48,0 КГц
Частота кадров : 31,250 кадров/сек (1536 SPF)
Битовая глубина : 16 бит
Метод сжатия : С потерями
Размер потока : 130 Мбайт (3%)
Заголовок : AVO (А.Гаврилов)
Язык : Russian
ServiceKind/String : Complete Main
Default : Да
Forced : Нет

Аудио #2
Идентификатор : 3
Формат : AC-3
Формат/Информация : Audio Coding 3
Коммерческое название : Dolby Digital
Идентификатор кодека : A_AC3
Продолжительность : 1 ч. 34 м.
Вид битрейта : Постоянный
Битрейт : 192 Кбит/сек
Каналы : 2 канала
Channel layout : L R
Частота : 48,0 КГц
Частота кадров : 31,250 кадров/сек (1536 SPF)
Битовая глубина : 16 бит
Метод сжатия : С потерями
Размер потока : 130 Мбайт (3%)
Заголовок : DVO (Ракурс, Екатеринбург Арт)
Язык : Russian
ServiceKind/String : Complete Main
Default : Нет
Forced : Нет

Меню
00:00:00.000 : en:Chapter 01
00:10:01.559 : en:Chapter 02
00:17:08.069 : en:Chapter 03
00:27:04.665 : en:Chapter 04
00:36:13.004 : en:Chapter 05
00:45:53.583 : en:Chapter 06
00:54:57.419 : en:Chapter 07
01:04:02.088 : en:Chapter 08
01:11:48.470 : en:Chapter 09
01:20:08.595 : en:Chapter 10
01:23:53.487 : en:Chapter 11
01:30:33.928 : en:Chapter 12

Просьба к переливающим на другие сайты, в оформлении указывайте пожалуйста авторство группы R.G. HD-Films pb.wtf



Скачать Полицейский 2000 года через торрент http://i91.fastpic.ru/big/2017/0107/1d/8bcffabd6b8f97e616060df9bb118d1d.jpg Скачать фильм Полицейский 2000 года через торрент бесплантно в хорошем качестве В ролях: Боло Йенг, Джалал Мерхи, Билли Блэнкс, Бобби Филлипс, Маттиас Хьюз, Келли Галлант, Гарри Мок, Рамсей Смит, Грегори Филпот Сюжет ... 10 10 6
Info! Золотая раздача, скачанное не засчитывается.
Торрент: Зарегистрирован [2020-06-07 15:45] · скачан: 59 раз
Статус: √ проверено
Размер: 4.24 GB
Как cкачать? Как скачать Полицейский 2000 года через торрент | UTorrent

28-11-2019 20:33  

Отключить всю рекламу на сайте

07-06-2020 15:59 Полицейский 2000 года Скачать торрент  

дайте раздачу плиз,вообще не качается..,автора пролайкал pb.wtf



07-06-2020 16:21 Полицейский 2000 года Скачать торрент  

pb.wtf



07-06-2020 19:09 Полицейский 2000 года Скачать торрент  

Спасибо огромное за олдскульный боевик!!! Ну нравится мне Бобби Филлипс как женщина и усё тут!!! Большая благодарность Вам от меня!!!pb.wtf



    Дорогой пользователь! Огромная просьба, поблагодарите релизера, оцените раздачу и оставьте свои комментарий, если Вы скачали Полицейский 2000 года через торрент бесплатно! Внесите свою лепту в развитие PiratBit!
    Комментировать посты могут только пользователи прошедшие не сложную регистрацию
    Показать сообщения:    

    Полицейский 2000 года через торрент
    Скачать бесплатно Полицейский 2000 года
    Полицейский 2000 года скачать торрент
    Полицейский 2000 года смотреть онлайн
    Cкачать фильм Полицейский 2000 года бесплатно
    Полицейский 2000 года скачать торрент в хорошем качестве
    Полицейский 2000 года смотреть онлайн бесплатно в хорошем качестве


    Вы не можете начинать темы
    Вы не можете отвечать на сообщения
    Вы не можете редактировать свои сообщения
    Вы не можете удалять свои сообщения
    Вы не можете голосовать в опросах
    Вы не можете прикреплять файлы к сообщениям
    Вы можете скачивать файлы