Ссылка на приватное зеркало нашего сайта всего за 1$. Внимание количество ограничено!!!

2 сезон

iTunes

1 сезон

1

2 сезон

2 сезон

iTunes

1 сезон

RePack

30

Ultimate

ВАЖНО

ИГРА 18+

pack

RePack

MK11
pack

Забери бонус

RePack

jed

!!Акция!!

Alien_Rage

RePack

fifa19

RePack

Assassins Creed: Odyssey

RePack

NEED FOR SPEED™ PAYBACK

4 сезон

9 сезон

Бесстыжие 9 сезон

Все сериалы

все сериалы на PB.wtf

RePack

FAR CRY 5
  

Кракатит / Krakatit (Отакар Вавра) [1948, фантастика, триллер, драма, антиутопия, BDRemux 1080p] [VO] (den904) pb.wtf

Кракатит через торрент pb.wtf

Размер: 13.12 GB | Добавлен: 5 мес. 22 д. назад | Торрент скачан:2 раза
Скачать  

07-06-2020 16:39 Кракатит Скачать торрент  

Кракатит / Krakatit
Год выпуска: 1948
Страна: Чехословакия
Студия: Ceskoslovenská Filmová Spolecnost
Жанр: фантастика, триллер, драма, антиутопия
Продолжительность: 01:40:45
Перевод: Любительский (одноголосый закадровый) - den904
Субтитры: русские (Аросева / Неизвестный), английские
Режиссер: Отакар Вавра / Otakar Vávra

В ролях: Карел Хёгер, Флоренс Марли, Эдуард Линкерс, Иржи Плахый, Наташа Танска, Франтишек Смолик, Мирослав Гомола, Власта Фабианова, Ярослав Пруха, Иржина Петровицка и др.
Описание: Экранизация одноимённого романа Карела Чапека.
Выход из галлюцинации вызванного болезнью инженера, изобретателя сверхопасного взрывчатого вещества "Кракатит". Режиссёр искусно передаёт сюрреалистическую атмосферу бреда, в котором переплетается реальность и вымысел. Вопросы о мировом господстве, аллюзии с атомной бомбой, экзистенциальные переживания учёного.
rating

Тип релиза: BDRemux 1080p
Контейнер: MKV (Сэмпл)

Видео: MPEG-4 AVC / 1920x1080 / 18014 kbps / 23.976 fps / 1.37:1
Аудио 1: Russian AC3 2.0 / 192 kbps / 48 kHz / VO (den904)
Аудио 2: English DTS-HD MA 1.0 / 450 kbps / 48 kHz / 16 bit ★★★
Формат субтитров: softsub (SRT)
Навигация по главам: есть
Общее
Уникальный идентификатор : 185329132533007355992593414108240960857 (0x8B6D17B40F9E4630BBDD650A90C85D59)
Полное имя : Krakatit.1948.DE.Studio.Hamburg.BDRemux.1080p-rutracker.mkv
Формат : Matroska
Версия формата : Version 4
Размер файла : 13,1 Гбайт
Продолжительность : 1 ч. 40 м.
Режим общего битрейта : Переменный
Общий поток : 18,6 Мбит/сек
Название фильма : Krakatit / 1948 / Studio Hamburg
Дата кодирования : UTC 2020-06-07 15:43:39
Программа кодирования : mkvmerge v47.0.0 ('Black Flag') 64-bit
Библиотека кодирования : libebml v1.3.10 + libmatroska v1.5.2
Обложка : Yes
Attachments : cover.jpg

Видео
Идентификатор : 1
Формат : AVC
Формат/Информация : Advanced Video Codec
Профиль формата : High@L4.1
Настройки формата : CABAC / 3 Ref Frames
Параметр CABAC формата : Да
Параметр RefFrames формата : 3 кадра
Идентификатор кодека : V_MPEG4/ISO/AVC
Продолжительность : 1 ч. 40 м.
Вид битрейта : Переменный
Битрейт : 18,0 Мбит/сек
Максимальный битрейт : 38,0 Мбит/сек
Ширина : 1 920 пикселей
Высота : 1 080 пикселей
Соотношение сторон : 16:9
Режим частоты кадров : Постоянный
Частота кадров : 23,976 (24000/1001) кадра/сек
Цветовое пространство : YUV
Субдискретизация насыщенности : 4:2:0
Битовая глубина : 8 бит
Тип развёртки : Прогрессивная
Бит/(Пиксели*Кадры) : 0.362
Размер потока : 12,7 Гбайт (97%)
Заголовок : Krakatit / MPEG-4 AVC @ 18014 kbps
Язык : Czech
Default : Да
Forced : Нет
Цветовой диапазон : Limited
Основные цвета : BT.709
Характеристики трансфера : BT.709
Коэффициенты матрицы : BT.709

Аудио #1
Идентификатор : 2
Формат : AC-3
Формат/Информация : Audio Coding 3
Коммерческое название : Dolby Digital
Идентификатор кодека : A_AC3
Продолжительность : 1 ч. 40 м.
Вид битрейта : Постоянный
Битрейт : 192 Кбит/сек
Каналы : 2 канала
Channel layout : L R
Частота : 48,0 КГц
Частота кадров : 31,250 кадров/сек (1536 SPF)
Метод сжатия : С потерями
Размер потока : 138 Мбайт (1%)
Заголовок : VO den904 / AC3 2.0 @ 192 kbps
Язык : Russian
Service kind : Complete Main
Default : Да
Forced : Нет

Аудио #2
Идентификатор : 3
Формат : DTS XLL
Формат/Информация : Digital Theater Systems
Коммерческое название : DTS-HD Master Audio
Идентификатор кодека : A_DTS
Продолжительность : 1 ч. 40 м.
Вид битрейта : Переменный
Битрейт : 450 Кбит/сек
Каналы : 1 канал
Channel layout : C
Частота : 48,0 КГц
Частота кадров : 93,750 кадра/сек (512 SPF)
Битовая глубина : 16 бит
Метод сжатия : Без потерь
Размер потока : 324 Мбайт (2%)
Заголовок : DTS-HD MA 1.0 @ 450 kbps
Язык : Czech
Default : Нет
Forced : Нет

Текст #1
Идентификатор : 4
Формат : UTF-8
Идентификатор кодека : S_TEXT/UTF8
Идентификатор кодека/Информация : UTF-8 Plain Text
Продолжительность : 1 ч. 40 м.
Битрейт : 82 бит/сек
Count of elements : 969
Размер потока : 60,7 Кбайт (0%)
Заголовок : Аросева / Неизвестный
Язык : Russian
Default : Нет
Forced : Нет

Текст #2
Идентификатор : 5
Формат : UTF-8
Идентификатор кодека : S_TEXT/UTF8
Идентификатор кодека/Информация : UTF-8 Plain Text
Продолжительность : 1 ч. 40 м.
Битрейт : 49 бит/сек
Count of elements : 984
Размер потока : 36,1 Кбайт (0%)
Язык : English
Default : Нет
Forced : Нет

Меню
00:00:00.000 : en:Chapter 01
00:07:27.530 : en:Chapter 02
00:16:42.167 : en:Chapter 03
00:25:34.991 : en:Chapter 04
00:32:10.094 : en:Chapter 05
00:40:58.247 : en:Chapter 06
00:48:29.239 : en:Chapter 07
01:01:05.578 : en:Chapter 08
01:08:56.882 : en:Chapter 09
01:18:26.368 : en:Chapter 10
01:25:27.455 : en:Chapter 11
01:35:48.200 : en:Chapter 12
скриншот  скриншот  скриншот  
pb.wtf



Скачать Кракатит через торрент https://i112.fastpic.ru/big/2020/0607/2c/d6fee0bf09b0118399becd1631cc562c.jpg Скачать фильм Кракатит через торрент бесплантно в хорошем качестве Описание: Экранизация одноимённого романа Карела Чапека.Выход из галлюцинации вызванного болезнью инженера, изобретателя сверхопасного ... 10 10 3
Торрент: Зарегистрирован [2020-06-07 16:39] · скачан: 2 раз
Статус: T временная
Размер: 13.12 GB
Как cкачать? Как скачать Кракатит через торрент | qTorrent

28-11-2019 20:33  

Отключить всю рекламу на сайте

    Дорогой пользователь! Огромная просьба, поблагодарите релизера, оцените раздачу и оставьте свои комментарий, если Вы скачали Кракатит через торрент бесплатно! Внесите свою лепту в развитие PiratBit!
    Комментировать посты могут только пользователи прошедшие не сложную регистрацию
    Показать сообщения:    

    Кракатит через торрент
    Скачать бесплатно Кракатит
    Кракатит скачать торрент
    Кракатит смотреть онлайн
    Cкачать фильм Кракатит бесплатно
    Кракатит скачать торрент в хорошем качестве
    Кракатит смотреть онлайн бесплатно в хорошем качестве


    Вы не можете начинать темы
    Вы не можете отвечать на сообщения
    Вы не можете редактировать свои сообщения
    Вы не можете удалять свои сообщения
    Вы не можете голосовать в опросах
    Вы не можете прикреплять файлы к сообщениям
    Вы можете скачивать файлы