Ссылка на приватное зеркало нашего сайта всего за 1$. Внимание количество ограничено!!!

2 сезон

iTunes

1 сезон

1

2 сезон

2 сезон

iTunes

1 сезон

RePack

30

Новинка

ВАЖНО

ИГРА 18+

pack

RePack

MK11
pack

Забери бонус

RePack

jed

!!Акция!!

Alien_Rage

RePack

fifa19

RePack

Assassins Creed: Odyssey

RePack

NEED FOR SPEED™ PAYBACK

4 сезон

9 сезон

Бесстыжие 9 сезон

Все сериалы

все сериалы на PB.wtf

RePack

FAR CRY 5
  

Назад в будущее: Трилогия / Back to the Future Trilogy (Роберт Земекис)[1985, 1989, 1990, США, Фантастика, боевик, комедия, приключения, семейный, BDRip 720p / 60fps , Дубляж] от R.G. HD-Films pb.wtf

Назад в будущее: Трилогия через торрент pb.wtf

Раздают: 6 [ 0 KB/s ]
Размер: 13.66 GB | Добавлен: 5 мес. 19 д. назад | Торрент скачан:78 раз
Скачать  

08-06-2020 08:38 Назад в будущее: Трилогия Скачать торрент  

Назад в будущее: Трилогия / Back to the Future Trilogy
Назад в будущее / Back to the Future
Год выпуска: : 1985
Страна: : США
Жанр: : Фантастика, комедия, приключения
Продолжительность: 01:56:01
Перевод: Дубляж
Субтитры: Russian, English

Режиссер: Роберт Земекис

Бюджет: $19 000 000
Премьера в мире: 3 июля 1985

rating

В ролях: Майкл Дж. Фокс, Кристофер Ллойд, Лиа Томпсон, Криспин Гловер, Томас Ф. Уилсон, Клодия Уэллс, Марк МакКлюр, Уэнди Джо Спербер, Джордж ДиЧенцо, Фрэнсис Ли МакКейн

Сюжет фильма: Подросток Марти с помощью машины времени, сооруженной его другом профессором доком Брауном, попадает из 80-х в далекие 50-е. Там он встречается со своими будущими родителями, еще подростками, и другом-профессором, совсем молодым.


Качество видео: BDRip 720p / 60 FPS
Формат: MKV
Видео кодек: H.264
Аудио кодек: AC3
Видео : x264, 1280 x 696 ( 1,85:1 ), 5300 kbps, 60,000 fps, ( 0.099 bpp)
Аудио : Русский, AC-3, 48.0 KHz, 6 ch, 384 Kbps
Релиз от:

скриншот   скриншот   скриншот   скриншот   скриншот   скриншот  Автор рипа: slaventi-69
x264 [info]: frame I:1675 Avg QP:19.79 size: 87945
x264 [info]: frame P:103205 Avg QP:21.18 size: 23114
x264 [info]: frame B:312361 Avg QP:24.28 size: 6640
x264 [info]: consecutive B-frames: 3.7% 2.1% 7.2% 23.4% 45.9% 17.7%


Общее
Уникальный идентификатор : 281887529997827119670580646756050646233 (0xD41190415A8699CEA293EA6F6979B4D9)
Полное имя : F:\Back to the Future Trilogy\Back.to.the.Future.(1985).BDRip.720p.(60 Fps).mkv
Формат : Matroska
Версия формата : Version 4
Размер файла : 4,60 Гбайт
Продолжительность : 1 ч. 55 м.
Общий поток : 5688 Кбит/сек
Название фильма : Назад в будущее / Back to the Future (1985) BDRip 720p (60 Fps)
Дата кодирования : UTC 2020-06-07 08:45:50
Программа кодирования : mkvmerge v35.0.0 ('All The Love In The World') 64-bit
Библиотека кодирования : libebml v1.3.9 + libmatroska v1.5.2

Видео
Идентификатор : 1
Формат : AVC
Формат/Информация : Advanced Video Codec
Профиль формата : High@L4.1
Настройки формата : CABAC / 8 Ref Frames
Параметр CABAC формата : Да
Параметр RefFrames формата : 8 кадров
Идентификатор кодека : V_MPEG4/ISO/AVC
Продолжительность : 1 ч. 55 м.
Битрейт : 5300 Кбит/сек
Ширина : 1280 пикселей
Высота : 696 пикселей
Соотношение сторон : 1,85:1
Режим частоты кадров : Постоянный
Частота кадров : 60,000 кадров/сек
Цветовое пространство : YUV
Субдискретизация насыщенности : 4:2:0
Битовая глубина : 8 бит
Тип развёртки : Прогрессивная
Бит/(Пиксели*Кадры) : 0.099
Размер потока : 4,29 Гбайт (93%)
Заголовок : slaventi-69 ( R.G. HD-Films | 60 fps )
Библиотека кодирования : x264 core 130 r2273 b3065e6
Настройки программы : cabac=1 / ref=8 / deblock=1:0:0 / analyse=0x3:0x133 / me=umh / subme=9 / psy=1 / psy_rd=1.00:0.00 / mixed_ref=1 / me_range=32 / chroma_me=1 / trellis=2 / 8x8dct=1 / cqm=0 / deadzone=21,11 / fast_pskip=0 / chroma_qp_offset=-2 / threads=10 / lookahead_threads=2 / sliced_threads=0 / nr=0 / decimate=1 / interlaced=0 / bluray_compat=0 / constrained_intra=0 / bframes=5 / b_pyramid=2 / b_adapt=2 / b_bias=0 / direct=2 / weightb=1 / open_gop=0 / weightp=2 / keyint=600 / keyint_min=23 / scenecut=40 / intra_refresh=0 / rc=crf / mbtree=0 / crf=19.2 / qcomp=0.60 / qpmin=0 / qpmax=69 / qpstep=4 / ip_ratio=1.40 / pb_ratio=1.30 / aq=1:1.00
Язык : English
Default : Да
Forced : Нет

Аудио
Идентификатор : 2
Формат : AC-3
Формат/Информация : Audio Coding 3
Коммерческое название : Dolby Digital
Идентификатор кодека : A_AC3
Продолжительность : 1 ч. 55 м.
Вид битрейта : Постоянный
Битрейт : 384 Кбит/сек
Каналы : 6 каналов
Channel layout : L R C LFE Ls Rs
Частота : 48,0 КГц
Частота кадров : 31,250 кадров/сек (1536 SPF)
Битовая глубина : 16 бит
Метод сжатия : С потерями
Размер потока : 318 Мбайт (7%)
Заголовок : Dub
Язык : Russian
ServiceKind/String : Complete Main
Default : Да
Forced : Нет

Текст #1
Идентификатор : 3
Формат : UTF-8
Идентификатор кодека : S_TEXT/UTF8
Идентификатор кодека/Информация : UTF-8 Plain Text
Продолжительность : 1 ч. 40 м.
Битрейт : 1 бит/сек
ElementCount : 22
Размер потока : 827 байт (0%)
Заголовок : Forced
Язык : Russian
Default : Да
Forced : Да

Текст #2
Идентификатор : 4
Формат : UTF-8
Идентификатор кодека : S_TEXT/UTF8
Идентификатор кодека/Информация : UTF-8 Plain Text
Продолжительность : 1 ч. 50 м.
Битрейт : 93 бит/сек
ElementCount : 1352
Размер потока : 75,3 Кбайт (0%)
Язык : Russian
Default : Нет
Forced : Нет

Текст #3
Идентификатор : 5
Формат : UTF-8
Идентификатор кодека : S_TEXT/UTF8
Идентификатор кодека/Информация : UTF-8 Plain Text
Продолжительность : 1 ч. 51 м.
Битрейт : 104 бит/сек
ElementCount : 1623
Размер потока : 85,9 Кбайт (0%)
Язык : English
Default : Нет
Forced : Нет

Текст #4
Идентификатор : 6
Формат : UTF-8
Идентификатор кодека : S_TEXT/UTF8
Идентификатор кодека/Информация : UTF-8 Plain Text
Продолжительность : 1 ч. 51 м.
Битрейт : 66 бит/сек
ElementCount : 1522
Размер потока : 54,2 Кбайт (0%)
Заголовок : SDH
Язык : English
Default : Нет
Forced : Нет

Меню
00:00:00.000 : en:Main Titles
00:04:13.544 : en:Late for School
00:06:47.281 : en:The Slacker
00:11:45.246 : en:The Family McFly
00:18:04.166 : en:A Time Machine?
00:28:12.273 : en:Escape to the Past
00:31:30.680 : en:1955
00:38:40.693 : en:Dad the Dork
00:41:22.313 : en:Calvin & Lorraine
00:47:53.370 : en:Future Boy & Doc
00:55:53.141 : en:Marty's Problem
00:58:49.859 : en:The Matchmaker
01:05:16.787 : en:Skateboard Hero
01:16:40.304 : en:The Big Date
01:20:14.643 : en:The Real George
01:27:23.321 : en:Johnny B. Goode
01:31:12.049 : en:Back to the Future
01:41:40.552 : en:Doc's Decision
01:46:41.436 : en:Future Shock
01:51:24.511 : en:Roads? (Credits)

Просьба к переливающим на другие сайты, в оформлении указывайте пожалуйста авторство группы R.G. HD-Films
Назад в будущее 2 / Back to the Future Part II
Год выпуска: : 1989
Страна: : США
Жанр: : Фантастика, боевик, комедия, приключения, семейный
Продолжительность: 01:47:59
Перевод: Дубляж
Субтитры: Russian, English

Режиссер: Роберт Земекис

Бюджет: $40 000 000
Премьера в мире: 20 ноября 1989

rating

В ролях: Майкл Дж. Фокс, Кристофер Ллойд, Лиа Томпсон, Томас Ф. Уилсон, Элизабет Шу, Джеймс Толкан, Джеффри Вайсман, Кэйси Семашко, Билли Зейн, Дж.Дж. Коэн

Сюжет фильма: Продолжение фантастической истории о приключениях американского подростка во времени. На этот раз с помощью модернизированной Доком машины времени Марти из 80-х попадает в будущее.
Дети Марти в беде, и их надо выручать. Приходится повозиться со злодеем…


Качество видео: BDRip 720p / 60 FPS
Формат: MKV
Видео кодек: H.264
Аудио кодек: AC3
Видео : x264, 1280 x 696 ( 1,85:1 ), 5522 kbps, 60,000 fps, ( 0.103 bpp)
Аудио : Русский, AC-3, 48.0 KHz, 6 ch, 384 Kbps
Релиз от:

скриншот   скриншот   скриншот   скриншот   скриншот   скриншот  Автор рипа: slaventi-69
x264 [info]: frame I:1615 Avg QP:17.10 size: 80085
x264 [info]: frame P:91611 Avg QP:18.35 size: 22897
x264 [info]: frame B:295142 Avg QP:21.63 size: 7594
x264 [info]: consecutive B-frames: 2.3% 1.6% 7.6% 23.6% 50.5% 14.4%


Общее
Уникальный идентификатор : 131027176800179005838417365161085498628 (0x6292EA94C949ED3B89F5D520F597F504)
Полное имя : F:\Back to the Future Trilogy\Back.to.the.Future.2.(1989).BDRip.720p.(60 Fps).mkv
Формат : Matroska
Версия формата : Version 4
Размер файла : 4,45 Гбайт
Продолжительность : 1 ч. 47 м.
Общий поток : 5911 Кбит/сек
Название фильма : Назад в будущее 2 / Back to the Future Part II (1989) BDRip 720p (60 Fps)
Дата кодирования : UTC 2020-06-07 08:56:26
Программа кодирования : mkvmerge v35.0.0 ('All The Love In The World') 64-bit
Библиотека кодирования : libebml v1.3.9 + libmatroska v1.5.2

Видео
Идентификатор : 1
Формат : AVC
Формат/Информация : Advanced Video Codec
Профиль формата : High@L4.1
Настройки формата : CABAC / 8 Ref Frames
Параметр CABAC формата : Да
Параметр RefFrames формата : 8 кадров
Идентификатор кодека : V_MPEG4/ISO/AVC
Продолжительность : 1 ч. 47 м.
Битрейт : 5522 Кбит/сек
Ширина : 1280 пикселей
Высота : 696 пикселей
Соотношение сторон : 1,85:1
Режим частоты кадров : Постоянный
Частота кадров : 60,000 кадров/сек
Цветовое пространство : YUV
Субдискретизация насыщенности : 4:2:0
Битовая глубина : 8 бит
Тип развёртки : Прогрессивная
Бит/(Пиксели*Кадры) : 0.103
Размер потока : 4,16 Гбайт (93%)
Заголовок : slaventi-69 ( R.G. HD-Films | 60 fps )
Библиотека кодирования : x264 core 130 r2273 b3065e6
Настройки программы : cabac=1 / ref=8 / deblock=1:0:0 / analyse=0x3:0x133 / me=umh / subme=9 / psy=1 / psy_rd=1.00:0.00 / mixed_ref=1 / me_range=32 / chroma_me=1 / trellis=2 / 8x8dct=1 / cqm=0 / deadzone=21,11 / fast_pskip=0 / chroma_qp_offset=-2 / threads=10 / lookahead_threads=2 / sliced_threads=0 / nr=0 / decimate=1 / interlaced=0 / bluray_compat=0 / constrained_intra=0 / bframes=5 / b_pyramid=2 / b_adapt=2 / b_bias=0 / direct=2 / weightb=1 / open_gop=0 / weightp=2 / keyint=600 / keyint_min=23 / scenecut=40 / intra_refresh=0 / rc=crf / mbtree=0 / crf=17.6 / qcomp=0.60 / qpmin=0 / qpmax=69 / qpstep=4 / ip_ratio=1.40 / pb_ratio=1.30 / aq=1:1.00
Язык : English
Default : Да
Forced : Нет

Аудио
Идентификатор : 2
Формат : AC-3
Формат/Информация : Audio Coding 3
Коммерческое название : Dolby Digital
Идентификатор кодека : A_AC3
Продолжительность : 1 ч. 47 м.
Вид битрейта : Постоянный
Битрейт : 384 Кбит/сек
Каналы : 6 каналов
Channel layout : L R C LFE Ls Rs
Частота : 48,0 КГц
Частота кадров : 31,250 кадров/сек (1536 SPF)
Битовая глубина : 16 бит
Метод сжатия : С потерями
Размер потока : 296 Мбайт (6%)
Заголовок : Dub
Язык : Russian
ServiceKind/String : Complete Main
Default : Да
Forced : Нет

Текст #1
Идентификатор : 3
Формат : UTF-8
Идентификатор кодека : S_TEXT/UTF8
Идентификатор кодека/Информация : UTF-8 Plain Text
Продолжительность : 1 ч. 40 м.
Битрейт : 1 бит/сек
ElementCount : 25
Размер потока : 1,03 Кбайт (0%)
Заголовок : Forced
Язык : Russian
Default : Да
Forced : Да

Текст #2
Идентификатор : 4
Формат : UTF-8
Идентификатор кодека : S_TEXT/UTF8
Идентификатор кодека/Информация : UTF-8 Plain Text
Продолжительность : 1 ч. 42 м.
Битрейт : 95 бит/сек
ElementCount : 1190
Размер потока : 71,9 Кбайт (0%)
Язык : Russian
Default : Нет
Forced : Нет

Текст #3
Идентификатор : 5
Формат : UTF-8
Идентификатор кодека : S_TEXT/UTF8
Идентификатор кодека/Информация : UTF-8 Plain Text
Продолжительность : 1 ч. 42 м.
Битрейт : 65 бит/сек
ElementCount : 1776
Размер потока : 49,0 Кбайт (0%)
Язык : English
Default : Нет
Forced : Нет

Текст #4
Идентификатор : 6
Формат : UTF-8
Идентификатор кодека : S_TEXT/UTF8
Идентификатор кодека/Информация : UTF-8 Plain Text
Продолжительность : 1 ч. 42 м.
Битрейт : 69 бит/сек
ElementCount : 1653
Размер потока : 52,0 Кбайт (0%)
Заголовок : SDH
Язык : English
Default : Нет
Forced : Нет

Меню
00:00:00.000 : en:00:00:00.000
00:02:57.511 : en:00:02:57.511
00:04:17.632 : en:00:04:17.632
00:12:44.389 : en:00:12:44.389
00:17:09.111 : en:00:17:09.111
00:21:16.525 : en:00:21:16.525
00:26:59.660 : en:00:26:59.660
00:34:15.428 : en:00:34:15.428
00:38:32.477 : en:00:38:32.477
00:46:13.062 : en:00:46:13.062
00:50:35.449 : en:00:50:35.449
00:55:32.621 : en:00:55:32.621
01:01:30.145 : en:01:01:30.145
01:07:14.197 : en:01:07:14.197
01:14:45.940 : en:01:14:45.940
01:28:00.609 : en:01:28:00.609
01:34:43.303 : en:01:34:43.303
01:37:46.027 : en:01:37:46.027
01:40:37.240 : en:01:40:37.240
01:43:25.491 : en:01:43:25.491

Просьба к переливающим на другие сайты, в оформлении указывайте пожалуйста авторство группы R.G. HD-Films
Назад в будущее 3 / Back to the Future Part III
Год выпуска: : 1990
Страна: : США
Жанр: : Фантастика, комедия, приключения, вестерн
Продолжительность: 01:58:18
Перевод: Дубляж
Субтитры: Russian, English

Режиссер: Роберт Земекис

Бюджет: $40 000 000
Премьера в мире: 25 мая 1990

rating

В ролях: Майкл Дж. Фокс, Кристофер Ллойд, Мэри Стинберген, Томас Ф. Уилсон, Лиа Томпсон, Элизабет Шу, Мэтт Кларк, Ричард А. Дайсарт, Пэт Баттрем, Гарри Кэри мл.

Сюжет фильма: Из газет 1955 года Марти узнает, что доктор Браун погиб еще сто лет назад. Несмотря на просьбы Дока не навещать его в XIX веке, Марти вновь хочет вмешаться в ход событий и на машине времени уносится в 1885 год, навстречу Дикому Западу.

Это путешествие, как и все прежние, не обходится без опасных приключений, но смелый Марти, рискуя жизнью, предотвращает трагедию в жизни Эммета Брауна. Тот, в свою очередь, без памяти влюбляется в очаровательную незнакомку, которую спасает от гибели, и поездка домой — в будущее — теряет для него всякий смысл…


Качество видео: BDRip 720p / 60 FPS
Формат: MKV
Видео кодек: H.264
Аудио кодек: AC3
Видео : x264, 1280 x 696 ( 16:9 ), 5184 kbps, 60,000 fps, ( 0.099 bpp)
Аудио : Русский, AC-3, 48.0 KHz, 6 ch, 384 Kbps
Релиз от:

скриншот   скриншот   скриншот   скриншот   скриншот   скриншот  Автор рипа: slaventi-69
x264 [info]: frame I:1637 Avg QP:18.21 size: 95031
x264 [info]: frame P:99513 Avg QP:19.33 size: 22039
x264 [info]: frame B:324281 Avg QP:22.40 size: 6926
x264 [info]: consecutive B-frames: 2.2% 1.6% 7.2% 20.6% 53.7% 14.7%


Общее
Уникальный идентификатор : 88267046961815211612720597707992673488 (0x42679D6914692AC87E2A418ACACD2CD0)
Полное имя : F:\Back to the Future Trilogy\Back.to.the.Future.3.(1989).BDRip.720p.(60 Fps).mkv
Формат : Matroska
Версия формата : Version 4
Размер файла : 4,60 Гбайт
Продолжительность : 1 ч. 58 м.
Общий поток : 5570 Кбит/сек
Название фильма : Назад в будущее 3 / Back to the Future Part III (1990) BDRip 720p (60 Fps)
Дата кодирования : UTC 2020-06-07 09:32:41
Программа кодирования : mkvmerge v35.0.0 ('All The Love In The World') 64-bit
Библиотека кодирования : libebml v1.3.9 + libmatroska v1.5.2

Видео
Идентификатор : 1
Формат : AVC
Формат/Информация : Advanced Video Codec
Профиль формата : High@L4.1
Настройки формата : CABAC / 8 Ref Frames
Параметр CABAC формата : Да
Параметр RefFrames формата : 8 кадров
Идентификатор кодека : V_MPEG4/ISO/AVC
Продолжительность : 1 ч. 58 м.
Битрейт : 5184 Кбит/сек
Ширина : 1248 пикселей
Высота : 696 пикселей
Соотношение сторон : 16:9
Режим частоты кадров : Постоянный
Частота кадров : 60,000 кадров/сек
Цветовое пространство : YUV
Субдискретизация насыщенности : 4:2:0
Битовая глубина : 8 бит
Тип развёртки : Прогрессивная
Бит/(Пиксели*Кадры) : 0.099
Размер потока : 4,28 Гбайт (93%)
Заголовок : slaventi-69 ( R.G. HD-Films | 60 fps )
Библиотека кодирования : x264 core 130 r2273 b3065e6
Настройки программы : cabac=1 / ref=8 / deblock=1:0:0 / analyse=0x3:0x133 / me=umh / subme=9 / psy=1 / psy_rd=1.00:0.00 / mixed_ref=1 / me_range=32 / chroma_me=1 / trellis=2 / 8x8dct=1 / cqm=0 / deadzone=21,11 / fast_pskip=0 / chroma_qp_offset=-2 / threads=10 / lookahead_threads=2 / sliced_threads=0 / nr=0 / decimate=1 / interlaced=0 / bluray_compat=0 / constrained_intra=0 / bframes=5 / b_pyramid=2 / b_adapt=2 / b_bias=0 / direct=2 / weightb=1 / open_gop=0 / weightp=2 / keyint=600 / keyint_min=23 / scenecut=40 / intra_refresh=0 / rc=crf / mbtree=0 / crf=17.9 / qcomp=0.60 / qpmin=0 / qpmax=69 / qpstep=4 / ip_ratio=1.40 / pb_ratio=1.30 / aq=1:1.00
Язык : English
Default : Да
Forced : Нет

Аудио
Идентификатор : 2
Формат : AC-3
Формат/Информация : Audio Coding 3
Коммерческое название : Dolby Digital
Идентификатор кодека : A_AC3
Продолжительность : 1 ч. 58 м.
Вид битрейта : Постоянный
Битрейт : 384 Кбит/сек
Каналы : 6 каналов
Channel layout : L R C LFE Ls Rs
Частота : 48,0 КГц
Частота кадров : 31,250 кадров/сек (1536 SPF)
Битовая глубина : 16 бит
Метод сжатия : С потерями
Размер потока : 325 Мбайт (7%)
Заголовок : Dub
Язык : Russian
ServiceKind/String : Complete Main
Default : Да
Forced : Нет

Текст #1
Идентификатор : 3
Формат : UTF-8
Идентификатор кодека : S_TEXT/UTF8
Идентификатор кодека/Информация : UTF-8 Plain Text
Продолжительность : 1 ч. 50 м.
Битрейт : 88 бит/сек
ElementCount : 1248
Размер потока : 71,5 Кбайт (0%)
Язык : Russian
Default : Нет
Forced : Нет

Текст #2
Идентификатор : 4
Формат : UTF-8
Идентификатор кодека : S_TEXT/UTF8
Идентификатор кодека/Информация : UTF-8 Plain Text
Продолжительность : 1 ч. 56 м.
Битрейт : 53 бит/сек
ElementCount : 1245
Размер потока : 45,8 Кбайт (0%)
Язык : English
Default : Нет
Forced : Нет

Меню
00:00:00.000 : en:01. Back Again
00:02:50.336 : en:02. Main Titles
00:05:01.134 : en:03. A Letter From Doc
00:12:42.011 : en:04. Doc's Destiny
00:15:49.365 : en:05. Back to 1885
00:22:15.208 : en:06. Clint Eastwood?
00:30:03.593 : en:07. Mad Dog
00:33:16.119 : en:08. Reunited
00:37:44.679 : en:09. Out of Gas
00:41:54.303 : en:10. Clara
00:50:43.331 : en:11. The Town Festival
00:56:58.665 : en:12. Trouble With Tannen
01:06:25.439 : en:13. The Course of the Future
01:16:23.078 : en:14. Late for a Train
01:20:44.840 : en:15. Showdown
01:30:33.678 : en:16. Racing Against Time
01:42:19.758 : en:17. Back to Normal
01:46:07.235 : en:18. Marty's Choice
01:48:07.939 : en:19. Meet the Family
01:51:52.831 : en:20. End Titles

Просьба к переливающим на другие сайты, в оформлении указывайте пожалуйста авторство группы R.G. HD-Films
pb.wtf



Скачать Назад в будущее: Трилогия через торрент http://img.lostpic.net/orig_images/2/4/1/241622a4e6865f0a1a2e69c79750f6a2.jpg Скачать фильм Назад в будущее: Трилогия через торрент бесплантно в хорошем качестве В ролях: Майкл Дж. Фокс, Кристофер Ллойд, Лиа Томпсон, Криспин Гловер, Томас Ф. Уилсон, Клодия Уэллс, Марк МакКлюр, Уэнди Джо Спербер, ... 10 10 11
Info! Золотая раздача, скачанное не засчитывается.
Торрент: Зарегистрирован [2020-06-08 08:38] · скачан: 78 раз
Статус: √ проверено
Размер: 13.66 GB
Как cкачать? Как скачать Назад в будущее: Трилогия через торрент | qTorrent

% Раздел Тема Автор DL S | L
Сборники на DVD и Сиквелы [DVDrip, WEB-DLRip, HDrip, BDRip] [ 4.34 GB ] Назад в будущее: Трилогия / Back to the Future: Trilogy [1985 1989 1990 HDRip-AVC] DUB / от R.G. nICE Films Demonessa Скачать
1 | 1

28-11-2019 20:33  

Отключить всю рекламу на сайте

08-06-2020 11:59 Назад в будущее: Трилогия Скачать торрент  

классpb.wtf



08-06-2020 11:59 Назад в будущее: Трилогия Скачать торрент  

сделайте рембо все части в 60 фпсpb.wtf



08-06-2020 12:07 Назад в будущее: Трилогия Скачать торрент  

Бумер писал(а):

сделайте рембо все части в 60 фпс

BDRip-AVC 60fps : Рэмбо : Квадрология / Rambo : Quadrilogy pb.wtf



08-06-2020 15:42 Назад в будущее: Трилогия Скачать торрент  

самый самый замечательный фильм всех времён.но смотреть его в дубляже точно не будуpb.wtf



09-06-2020 18:33 Назад в будущее: Трилогия Скачать торрент  

О да!!! То что надо и в нужном формате и объеме!!!
Большое мерсю! pb.wtf



10-06-2020 16:06 Назад в будущее: Трилогия Скачать торрент  

михакруг писал(а):

О да!!! То что надо и в нужном формате и объеме!!!
Большое мерсю!

Большое плиз, как заказывали, смотрите в удовольствие.pb.wtf



12-06-2020 15:27 Назад в будущее: Трилогия Скачать торрент  

slaventi-69 писал(а):

михакруг писал(а):

О да!!! То что надо и в нужном формате и объеме!!!
Большое мерсю!

Большое плиз, как заказывали, смотрите в удовольствие.

Дружище если не трудно в порядке очереди соответственно! Сможешь сделать детей шпионов 4 часть?pb.wtf



    Дорогой пользователь! Огромная просьба, поблагодарите релизера, оцените раздачу и оставьте свои комментарий, если Вы скачали Назад в будущее: Трилогия через торрент бесплатно! Внесите свою лепту в развитие PiratBit!
    Комментировать посты могут только пользователи прошедшие не сложную регистрацию
    Показать сообщения:    

    Назад в будущее: Трилогия через торрент
    Скачать бесплатно Назад в будущее: Трилогия
    Назад в будущее: Трилогия скачать торрент
    Назад в будущее: Трилогия смотреть онлайн
    Cкачать фильм Назад в будущее: Трилогия бесплатно
    Назад в будущее: Трилогия скачать торрент в хорошем качестве
    Назад в будущее: Трилогия смотреть онлайн бесплатно в хорошем качестве


    Вы не можете начинать темы
    Вы не можете отвечать на сообщения
    Вы не можете редактировать свои сообщения
    Вы не можете удалять свои сообщения
    Вы не можете голосовать в опросах
    Вы не можете прикреплять файлы к сообщениям
    Вы можете скачивать файлы