Ссылка на приватное зеркало нашего сайта всего за 1$. Внимание количество ограничено!!!

2 сезон

iTunes

1 сезон

1

2 сезон

2 сезон

iTunes

1 сезон

RePack

30

Ultimate

ВАЖНО

ИГРА 18+

pack

RePack

MK11
pack

Забери бонус

RePack

jed

!!Акция!!

Alien_Rage

RePack

fifa19

RePack

Assassins Creed: Odyssey

RePack

NEED FOR SPEED™ PAYBACK

4 сезон

9 сезон

Бесстыжие 9 сезон

Все сериалы

все сериалы на PB.wtf

RePack

FAR CRY 5
  

Мой папа - супергерой / Copperman (Эрос Пульелли) [2019, Мелодрама, BD Remux 1080p] MVO [iTunes] pb.wtf

Мой папа - супергерой через торрент pb.wtf

Размер: 19.8 GB | Добавлен: 5 мес. 22 д. назад | Торрент скачан:14 раз
Скачать  

08-06-2020 16:26 Мой папа - супергерой Скачать торрент  

Мой папа - супергерой | Copperman
Год выпуска: 2019
Страна: Италия
Студия: Eliofilm, Notorious Pictures, Rai Cinema
Жанр: Мелодрама
Продолжительность: 01:40:07
Перевод: Профессиональный (многоголосый) | iTunes
Субтитры: Русские (Full), итальянские

Режиссер: Эрос Пульелли

rating

В ролях: Лука Арджентеро, Антония Труппо, Галатеа Ранци, Джанлука Гобби, Томмазо Раньо, Себастьян Димулеску, Анджелика Белуччи, Гуальтьеро Бурци, Луис Мольтени, Паоло Романо

Описание: Ансельмо - особенный. Уже взрослый мужчина, он смотрит на мир глазами ребенка и до сих пор верит, что отец, который когда-то оставил его, - супергерой. Ансельмо живет своей детской мечтой и однажды понимает: пришло время самому исполнить ее.

Качество: BD Remux 1080p
Формат: MKV

Видео: MPEG-4 AVC, 1920x1080, 26.1 Mbit/s, 24.000 fps
Аудио #01: 48 kHz, AC3, 5.1, 384 Kbps | iTunes | RUS
Аудио #02: 48 kHz, FLAC, 5.1, 1229 Kbps | Оригинал | ITA
Аудио #03: 48 kHz, AC3, 5.1, 640 Kbps | Оригинал | ITA
скриншот  скриншот  скриншот  скриншот  скриншот  

General
Unique ID: 264665738173670234633929960131652718083 (0xC71CC45CBF27C8E6C05EDCC110F38E03)
Complete name: E:\Video111\Copperman.2019.BDREMUX.1080p.seleZen.mkv
Format: Matroska
Format version: Version 4
File size: 19.8 GiB
Duration: 1 h 40 min
Overall bit rate mode: Variable
Overall bit rate: 28.3 Mb/s
Movie name: Copperman 2019 from селезень
Encoded date: UTC 2020-06-08 15:21:42
Writing application: mkvmerge v40.0.0 ('Old Town Road + Pony') 64-bit
Writing library: libebml v1.3.9 + libmatroska v1.5.2

Video
ID: 1
Format: AVC
Format/Info: Advanced Video Codec
Format profile: High@L4.1
Format settings: CABAC / 2 Ref Frames
Format settings, CABAC: Yes
Format settings, Reference: 2 frames
Format settings, GOP: M=1, N=5
Codec ID: V_MPEG4/ISO/AVC
Duration: 1 h 40 min
Bit rate mode: Variable
Bit rate: 26.1 Mb/s
Maximum bit rate: 32.2 Mb/s
Width: 1 920 pixels
Height: 1 080 pixels
Display aspect ratio: 16:9
Frame rate mode: Constant
Frame rate: 24.000 FPS
Color space: YUV
Chroma subsampling: 4:2:0
Bit depth: 8 bits
Scan type: Progressive
Bits/(Pixel*Frame): 0.523
Stream size: 18.2 GiB (92%)
Language: Italian
Default: No
Forced: No

Audio #1
ID: 2
Format: AC-3
Format/Info: Audio Coding 3
Commercial name: Dolby Digital
Codec ID: A_AC3
Duration: 1 h 40 min
Bit rate mode: Constant
Bit rate: 384 kb/s
Channel(s): 6 channels
Channel layout: L R C LFE Ls Rs
Sampling rate: 48.0 kHz
Frame rate: 31.250 FPS (1536 SPF)
Compression mode: Lossy
Stream size: 275 MiB (1%)
Title: MVO [iTunes]
Language: Russian
Service kind: Complete Main
Default: Yes
Forced: Yes

Audio #2
ID: 3
Format: FLAC
Format/Info: Free Lossless Audio Codec
Codec ID: A_FLAC
Duration: 1 h 40 min
Bit rate mode: Variable
Bit rate: 1 229 kb/s
Channel(s): 6 channels
Channel layout: L R C LFE Ls Rs
Sampling rate: 48.0 kHz
Frame rate: 11.719 FPS (4096 SPF)
Bit depth: 16 bits
Compression mode: Lossless
Stream size: 880 MiB (4%)
Title: Original
Writing library: libFLAC 1.2.1 (UTC 2007-09-17)
Language: Italian
Default: No
Forced: No

Audio #3
ID: 4
Format: AC-3
Format/Info: Audio Coding 3
Commercial name: Dolby Digital
Codec ID: A_AC3
Duration: 1 h 40 min
Bit rate mode: Constant
Bit rate: 640 kb/s
Channel(s): 6 channels
Channel layout: L R C LFE Ls Rs
Sampling rate: 48.0 kHz
Frame rate: 31.250 FPS (1536 SPF)
Compression mode: Lossy
Stream size: 458 MiB (2%)
Title: Original
Language: Italian
Service kind: Complete Main
Default: No
Forced: No

Text #1
ID: 5
Format: UTF-8
Codec ID: S_TEXT/UTF8
Codec ID/Info: UTF-8 Plain Text
Duration: 1 h 35 min
Bit rate: 52 b/s
Count of elements: 807
Stream size: 36.9 KiB (0%)
Title: Full
Language: Russian
Default: No
Forced: No

Text #2
ID: 6
Format: UTF-8
Codec ID: S_TEXT/UTF8
Codec ID/Info: UTF-8 Plain Text
Duration: 1 h 34 min
Bit rate: 43 b/s
Count of elements: 901
Stream size: 30.1 KiB (0%)
Language: Italian
Default: No
Forced: No

Menu
00:00:00.000: :Chapter 1
00:03:51.958: :Chapter 2
00:08:54.417: :Chapter 3
00:13:57.500: :Chapter 4
00:18:29.958: :Chapter 5
00:24:00.250: :Chapter 6
00:28:24.792: :Chapter 7
00:33:18.167: :Chapter 8
00:38:18.583: :Chapter 9
00:44:12.333: :Chapter 10
00:47:30.708: :Chapter 11
00:53:27.833: :Chapter 12
00:58:31.250: :Chapter 13
01:04:31.542: :Chapter 14
01:09:07.708: :Chapter 15
01:14:36.792: :Chapter 16
01:19:37.083: :Chapter 17
01:24:31.958: :Chapter 18
01:29:02.333: :Chapter 19
01:35:59.042: :Chapter 20

pb.wtf



Скачать Мой папа - супергерой через торрент https://img10.lostpic.net/2020/06/08/a961247b0f953bf3f5d3ee0f64950122.jpg Скачать фильм Мой папа - супергерой через торрент бесплантно в хорошем качестве Описание: Ансельмо - особенный. Уже взрослый мужчина, он смотрит на мир глазами ребенка и до сих пор верит, что отец, который когда-то ... 8.3 10 4
Торрент: Зарегистрирован [2020-06-08 16:26] · скачан: 14 раз
Статус: √ проверено
Размер: 19.8 GB
Как cкачать? Как скачать Мой папа - супергерой через торрент | qTorrent

% Раздел Тема Автор DL S | L
Фильмы 2019-2020 [DVDrip, WEB-DLRip, HDrip] (DUB, MVO) [ 1.41 GB ] Мой папа - супергерой / Copperman [2019 Мело BDRip] MVO Twi7ter Скачать
5 | 0
Фильмы 2019-2020 [DVDrip, WEB-DLRip, HDrip] (DUB, MVO) [ 745 MB ] Мой папа - супергерой / Copperman [2019 Мело HDRip] MVO bober100 Скачать
1 | 0
Фильмы [HD 720p, 1080p] (Хороший звук DUB, MVO) [ 8.16 GB ] Мой папа - супергерой / Copperman [2019 Мело BDRip 1080p] MVO bober100 Скачать
1 | 0
Фильмы [HD 720p, 1080p] (Хороший звук DUB, MVO) [ 5.16 GB ] Мой папа - супергерой / Copperman [2019 Мело BDRip 720p] MVO bober100 Скачать
1 | 0
Фильмы 2019-2020 [DVDrip, WEB-DLRip, HDrip] (DUB, MVO) [ 1.46 GB ] Мой папа - супергерой / Copperman [2019 Мело BDRip] MVO bober100 Скачать
1 | 0

28-11-2019 20:33  

Отключить всю рекламу на сайте

    Дорогой пользователь! Огромная просьба, поблагодарите релизера, оцените раздачу и оставьте свои комментарий, если Вы скачали Мой папа - супергерой через торрент бесплатно! Внесите свою лепту в развитие PiratBit!
    Комментировать посты могут только пользователи прошедшие не сложную регистрацию
    Показать сообщения:    

    Мой папа - супергерой через торрент
    Скачать бесплатно Мой папа - супергерой
    Мой папа - супергерой скачать торрент
    Мой папа - супергерой смотреть онлайн
    Cкачать фильм Мой папа - супергерой бесплатно
    Мой папа - супергерой скачать торрент в хорошем качестве
    Мой папа - супергерой смотреть онлайн бесплатно в хорошем качестве


    Вы не можете начинать темы
    Вы не можете отвечать на сообщения
    Вы не можете редактировать свои сообщения
    Вы не можете удалять свои сообщения
    Вы не можете голосовать в опросах
    Вы не можете прикреплять файлы к сообщениям
    Вы можете скачивать файлы