2 сезон

iTunes

MVO

1

2 сезон

iTunes

iTunes

1 сезон

RePack

30

Новинка

ВАЖНО

ИГРА 18+

pack

RePack

MK11
pack

Легкие деньги

RePack

jed

RePack

fifa19

RePack

RDR2

RePack

NEED FOR SPEED™ PAYBACK

4 сезон

9 сезон

Бесстыжие 9 сезон

Все сериалы

все сериалы на PB.wtf

RePack

FAR CRY 5

Anonymous, доброе утро, мы не успеваем собрать деньги на оплату серверов за декабрь и январь, помогите нам пожалуйста в это трудное время. В качестве благодарности мы отключим Вам всю рекламу на сайте (укажите свой ник в строку Ваше имя)!

×
  
Magnet ссылка

Подъем с глубины / Deep Rising (Стивен Соммерс) [1998 г., ужасы, фантастика, боевик, приключения, WEB-DLRip 720p / 60 FPS, Профессиональный (многоголосый)] ( Open Matte ) от R.G. HD-Films pb.wtf

Подъем с глубины через торрент pb.wtf

Размер: 4.1 GB | Добавлен: 7 мес. назад | Торрент скачан:82 раза
Скачать  

09-06-2020 17:07 Подъем с глубины Скачать торрент  

Подъем с глубины / Deep Rising
Год выпуска: : 1998
Страна: : США, Канада
Жанр: : ужасы, фантастика, боевик, приключения
Продолжительность: 01:46:20
Перевод: Профессиональный (многоголосый, закадровый), (ОРТ)
Субтитры: Russian, English

Режиссер: Стивен Соммерс

Бюджет: $45 000 000
Премьера в мире: 30 января 1998

rating

В ролях: Трит Уильямс (John Finnegan), Фамке Янссен (Trillian St. James), Энтони Хилд (Simon Canton), Кевин Дж. О’Коннор (Joey Pantucci), Уэс Стьюди (Hanover), Деррик О’Коннор (Captain Atherton), Джейсон Флеминг (Mulligan), Клифф Кёртис (Mamooli), Клифтон Пауэлл (Mason), Тревор Годдард (T. Ray), Джимон Хонсу (Vivo), Уна Дэймон (Leila)

Сюжет фильма: Банда наемников отправляется на перехват океанского пассажирского лайнера с целью захвата драгоценностей и денег. Вооруженные до зубов, они рассчитывают на успех этой тщательно спланированной операции.

Но боевая уверенность захватчиков сменяется ужасом перед небывалыми чудовищами, устроившими пир на корабле! У этих монстров здесь не было противников! И кровь тысяч людей не смогла утолить их жажду!


Качество видео: WEB-DLRip 720p / 60 FPS
Формат: MKV
Видео кодек: H.264
Аудио кодек: AC3
Видео : x264, 1280 x 720 ( 16:9 ), 5323 kbps, 60,000 fps, ( 0.096 bpp)
Аудио : Русский, AC-3, 48.0 KHz, 2 ch, 192 Kbps MVO (ОРТ)
Релиз от:

скриншот   скриншот   скриншот   скриншот   скриншот   скриншот  Автор рипа: slaventi-69

x264 [info]: frame I:1887 Avg QP:16.33 size: 64461
x264 [info]: frame P:87056 Avg QP:17.12 size: 23607
x264 [info]: frame B:293468 Avg QP:19.47 size: 7033
x264 [info]: consecutive B-frames: 1.7% 1.8% 7.4% 13.6% 65.3% 10.2%


Общее
Уникальный идентификатор : 172631370171356389355827973036651879652 (0x81DF97AF16330C5BA1D0B9FCD2089CE4)
Полное имя : F:\Deep.Rising.(1998).WEB-DLRip.720p.(60 Fps).(Open Matte).mkv
Формат : Matroska
Версия формата : Version 4
Размер файла : 4,10 Гбайт
Продолжительность : 1 ч. 46 м.
Общий поток : 5519 Кбит/сек
Название фильма : Подъем с глубины / Deep Rising (1998) WEB-DLRip 720p (60 Fps) | Open Matte
Дата кодирования : UTC 2020-06-07 07:02:45
Программа кодирования : mkvmerge v12.0.0 ('Trust / Lust') 64bit
Библиотека кодирования : libebml v1.3.4 + libmatroska v1.4.5

Видео
Идентификатор : 1
Формат : AVC
Формат/Информация : Advanced Video Codec
Профиль формата : High@L4.1
Настройки формата : CABAC / 8 Ref Frames
Параметр CABAC формата : Да
Параметр RefFrames формата : 8 кадров
Идентификатор кодека : V_MPEG4/ISO/AVC
Продолжительность : 1 ч. 46 м.
Битрейт : 5323 Кбит/сек
Ширина : 1280 пикселей
Высота : 720 пикселей
Соотношение сторон : 16:9
Режим частоты кадров : Постоянный
Частота кадров : 60,000 кадров/сек
Цветовое пространство : YUV
Субдискретизация насыщенности : 4:2:0
Битовая глубина : 8 бит
Тип развёртки : Прогрессивная
Бит/(Пиксели*Кадры) : 0.096
Размер потока : 3,95 Гбайт (96%)
Заголовок : slaventi-69 ( R.G. HD-Films | 60 fps )
Библиотека кодирования : x264 core 130 r2273 b3065e6
Настройки программы : cabac=1 / ref=8 / deblock=1:0:0 / analyse=0x3:0x113 / me=umh / subme=9 / psy=1 / psy_rd=1.00:0.00 / mixed_ref=1 / me_range=26 / chroma_me=1 / trellis=2 / 8x8dct=1 / cqm=0 / deadzone=21,11 / fast_pskip=0 / chroma_qp_offset=-2 / threads=4 / lookahead_threads=1 / sliced_threads=0 / nr=0 / decimate=1 / interlaced=0 / bluray_compat=0 / constrained_intra=0 / bframes=5 / b_pyramid=2 / b_adapt=2 / b_bias=0 / direct=3 / weightb=1 / open_gop=0 / weightp=2 / keyint=600 / keyint_min=25 / scenecut=40 / intra_refresh=0 / rc=crf / mbtree=0 / crf=17.7 / qcomp=0.60 / qpmin=0 / qpmax=69 / qpstep=4 / ip_ratio=1.40 / pb_ratio=1.30 / aq=1:1.00
Язык : English
Default : Да
Forced : Нет

Аудио
Идентификатор : 2
Формат : AC-3
Формат/Информация : Audio Coding 3
Коммерческое название : Dolby Digital
Идентификатор кодека : A_AC3
Продолжительность : 1 ч. 46 м.
Вид битрейта : Постоянный
Битрейт : 192 Кбит/сек
Каналы : 2 канала
Channel layout : L R
Частота : 48,0 КГц
Частота кадров : 31,250 кадров/сек (1536 SPF)
Битовая глубина : 16 бит
Метод сжатия : С потерями
Размер потока : 146 Мбайт (3%)
Заголовок : MVO (ОРТ)
Язык : Russian
ServiceKind/String : Complete Main
Default : Да
Forced : Нет

Текст #1
Идентификатор : 3
Формат : UTF-8
Идентификатор кодека : S_TEXT/UTF8
Идентификатор кодека/Информация : UTF-8 Plain Text
Продолжительность : 1 ч. 38 м.
Битрейт : 75 бит/сек
ElementCount : 863
Размер потока : 54,2 Кбайт (0%)
Язык : Russian
Default : Нет
Forced : Нет

Текст #2
Идентификатор : 4
Формат : UTF-8
Идентификатор кодека : S_TEXT/UTF8
Идентификатор кодека/Информация : UTF-8 Plain Text
Продолжительность : 1 ч. 36 м.
Битрейт : 45 бит/сек
ElementCount : 1063
Размер потока : 32,4 Кбайт (0%)
Язык : English
Default : Нет
Forced : Нет

Текст #3
Идентификатор : 5
Формат : UTF-8
Идентификатор кодека : S_TEXT/UTF8
Идентификатор кодека/Информация : UTF-8 Plain Text
Продолжительность : 1 ч. 38 м.
Битрейт : 54 бит/сек
ElementCount : 1198
Размер потока : 39,4 Кбайт (0%)
Заголовок : SDH, Amazon
Язык : English
Default : Нет
Forced : Нет

Просьба к переливающим на другие сайты, в оформлении указывайте пожалуйста авторство группы R.G. HD-Films pb.wtf



Скачать Подъем с глубины через торрент http://lostpix.com/img/2018-04/27/tpdpybe05ugyvot8pvdnv46ny.png Скачать фильм Подъем с глубины через торрент бесплантно в хорошем качестве В ролях: Трит Уильямс (John Finnegan), Фамке Янссен (Trillian St. James), Энтони Хилд (Simon Canton), Кевин Дж. О’Коннор (Joey Pantucci), ... 9.6 10 9
Info! Золотая раздача, скачанное не засчитывается.
Торрент: Зарегистрирован [2020-06-09 17:07] · скачан: 82 раз
Статус: √ проверено
Размер: 4.1 GB
Как cкачать? Как скачать Подъем с глубины через торрент | UTorrent

28-11-2019 20:33  

Отключить всю рекламу на сайте

10-06-2020 17:35 Подъем с глубины Скачать торрент  

Большая благодарность за фильм!!! Хотя и считается фильмом категории "Б", но по моему, фильм недооценен. Мне нравится этот фильм!!! И заслуженно отправляется в ларчик к остальным...pb.wtf



11-06-2020 08:07 Подъем с глубины Скачать торрент  

один из самых отличных фильмов того года. была видеокассета заюзанная всеми друзьями и знакомыми. старый недооцененый фильмpb.wtf



    Дорогой пользователь! Огромная просьба, поблагодарите релизера, оцените раздачу и оставьте свои комментарий, если Вы скачали Подъем с глубины через торрент бесплатно! Внесите свою лепту в развитие PiratBit!
    Комментировать посты могут только пользователи прошедшие не сложную регистрацию
    Показать сообщения:    

    Подъем с глубины через торрент
    Скачать бесплатно Подъем с глубины
    Подъем с глубины скачать торрент
    Подъем с глубины смотреть онлайн
    Cкачать фильм Подъем с глубины бесплатно
    Подъем с глубины скачать торрент в хорошем качестве
    Подъем с глубины смотреть онлайн бесплатно в хорошем качестве


    Вы не можете начинать темы
    Вы не можете отвечать на сообщения
    Вы не можете редактировать свои сообщения
    Вы не можете удалять свои сообщения
    Вы не можете голосовать в опросах
    Вы не можете прикреплять файлы к сообщениям
    Вы можете скачивать файлы