Ссылка на приватное зеркало нашего сайта всего за 1$. Внимание количество ограничено!!!

2 сезон

iTunes

1 сезон

1

2 сезон

2 сезон

iTunes

1 сезон

RePack

30

Ultimate

ВАЖНО

ИГРА 18+

pack

RePack

MK11
pack

Забери бонус

RePack

jed

!!Акция!!

Alien_Rage

RePack

fifa19

RePack

Assassins Creed: Odyssey

RePack

NEED FOR SPEED™ PAYBACK

4 сезон

9 сезон

Бесстыжие 9 сезон

Все сериалы

все сериалы на PB.wtf

RePack

FAR CRY 5
  

Пиноккио / Pinocchio (Маттео Гарроне) [2019, Фэнтези, BD Remux 1080p] DUB [iTunes] pb.wtf

Пиноккио через торрент pb.wtf

Раздают: 1 [ 55 KB/s ]
Размер: 32.83 GB | Добавлен: 5 мес. 16 д. назад | Торрент скачан:66 раз
Скачать  

09-06-2020 19:11 Пиноккио Скачать торрент  

Пиноккио | Pinocchio
Год выпуска: 2019
Страна: Италия, Франция, Великобритания
Студия: Archimede, Rai Cinema, Le Pacte
Жанр: Фэнтези
Продолжительность: 02:04:59
Перевод: Дублированный | iTuens
Субтитры: Русские (Full), английские

Режиссер: Маттео Гарроне

rating

В ролях: Роберто Бениньи, Федерико Иелапи, Рокко Папалео, Массимо Чеккерини, Марин Вакт, Джиджи Пройетти, Алида Бальдари Калабрия, Алессио Ди Доменикантонио, Мария Пиа Тимо, Давиде Маротта

Описание: Одинокий нищий столяр Джеппетто, сидящий без работы в провинциальном городке, решает смастерить куклу. Знакомый дарит ему подозрительное полено, и вот на свет появляется Пиноккио, деревянный мальчик, которого счастливый Джеппетто объявляет своим сыном... Невероятное путешествие в мир удивительных созданий и волшебства, где даже деревянная кукла может стать настоящим человеком, если пожелает этого чистым сердцем.

Качество: BD Remux 1080p
Формат: MKV

Видео: MPEG-4 AVC, 1920x1080, 34.8 Mbit/s, 24.000 fps
Аудио #01: 48 kHz, AC3, 5.1, 384 Kbps | iTunes | RUS |
Аудио #02: 48 kHz, DTS-HD MA, 5.1, 2373 Kbps | Оригинал | ITA |
скриншот  скриншот  скриншот  скриншот  скриншот  

General
Unique ID : 161359345944809211366626831045528693114 (0x7964ADFB53872F82B3DB32C322C4A97A)
Complete name : E:Video111Pinocchio.2019.BDREMUX.1080p.seleZen.mkv
Format : Matroska
Format version : Version 4
File size : 32.8 GiB
Duration : 2 h 4 min
Overall bit rate mode : Variable
Overall bit rate : 37.6 Mb/s
Movie name : Pinocchio 2019 from селезень
Encoded date : UTC 2020-06-09 18:52:02
Writing application : mkvmerge v40.0.0 ('Old Town Road + Pony') 64-bit
Writing library : libebml v1.3.9 + libmatroska v1.5.2
Cover : Yes
Attachments : cover.jpg

Video
ID : 1
Format : AVC
Format/Info : Advanced Video Codec
Format profile : High@L4.1
Format settings : CABAC / 4 Ref Frames
Format settings, CABAC : Yes
Format settings, Reference : 4 frames
Format settings, GOP : M=3, N=12
Codec ID : V_MPEG4/ISO/AVC
Duration : 2 h 4 min
Bit rate mode : Variable
Bit rate : 34.8 Mb/s
Maximum bit rate : 38.0 Mb/s
Width : 1 920 pixels
Height : 1 080 pixels
Display aspect ratio : 16:9
Frame rate mode : Constant
Frame rate : 24.000 FPS
Color space : YUV
Chroma subsampling : 4:2:0
Bit depth : 8 bits
Scan type : Progressive
Bits/(Pixel*Frame) : 0.700
Stream size : 30.4 GiB (93%)
Language : English
Default : No
Forced : No

Audio #1
ID : 2
Format : AC-3
Format/Info : Audio Coding 3
Commercial name : Dolby Digital
Codec ID : A_AC3
Duration : 2 h 4 min
Bit rate mode : Constant
Bit rate : 384 kb/s
Channel(s) : 6 channels
Channel layout : L R C LFE Ls Rs
Sampling rate : 48.0 kHz
Frame rate : 31.250 FPS (1536 SPF)
Compression mode : Lossy
Stream size : 343 MiB (1%)
Title : iTunes
Language : Russian
Service kind : Complete Main
Default : Yes
Forced : Yes

Audio #2
ID : 3
Format : DTS XLL
Format/Info : Digital Theater Systems
Commercial name : DTS-HD Master Audio
Codec ID : A_DTS
Duration : 2 h 4 min
Bit rate mode : Variable
Bit rate : 2 373 kb/s
Channel(s) : 6 channels
Channel layout : C L R Ls Rs LFE
Sampling rate : 48.0 kHz
Frame rate : 93.750 FPS (512 SPF)
Bit depth : 16 bits
Compression mode : Lossless
Stream size : 2.07 GiB (6%)
Title : Original
Language : Italian
Default : No
Forced : No

Text #1
ID : 4
Format : UTF-8
Codec ID : S_TEXT/UTF8
Codec ID/Info : UTF-8 Plain Text
Duration : 1 h 54 min
Bit rate : 94 b/s
Count of elements : 1553
Stream size : 79.3 KiB (0%)
Title : Full
Language : Russian
Default : No
Forced : No

Text #2
ID : 5
Format : UTF-8
Codec ID : S_TEXT/UTF8
Codec ID/Info : UTF-8 Plain Text
Duration : 1 h 54 min
Bit rate : 49 b/s
Count of elements : 1298
Stream size : 41.7 KiB (0%)
Language : English
Default : No
Forced : No

Menu
00:00:00.000 : :Chapter 1
00:10:24.000 : :Chapter 2
00:20:41.708 : :Chapter 3
00:31:29.250 : :Chapter 4
00:41:29.958 : :Chapter 5
00:51:46.792 : :Chapter 6
01:01:43.833 : :Chapter 7
01:13:06.500 : :Chapter 8
01:23:58.917 : :Chapter 9
01:33:31.917 : :Chapter 10
01:44:55.667 : :Chapter 11
01:53:57.458 : :Chapter 12

pb.wtf



Скачать Пиноккио через торрент https://i112.fastpic.ru/big/2020/0609/ac/1fc81086ba5b909c5f427115656e6eac.jpg Скачать фильм Пиноккио через торрент бесплантно в хорошем качестве Описание: Одинокий нищий столяр Джеппетто, сидящий без работы в провинциальном городке, решает смастерить куклу. Знакомый дарит ему ... 10 10 6
Торрент: Зарегистрирован [2020-06-09 19:11] · скачан: 66 раз
Статус: √ проверено
Размер: 32.83 GB
Как cкачать? Как скачать Пиноккио через торрент | qTorrent

% Раздел Тема Автор DL S | L
Фильмы 2019-2020 [DVDrip, WEB-DLRip, HDrip] (DUB, MVO) [ 746 MB ] Пиноккио / Pinocchio [2019 BDRip-AVC] Lithuania Скачать
3 | 0
Фильмы [HD 720p, 1080p] (Хороший звук DUB, MVO) [ 9.61 GB ] Пиноккио / Pinocchio [2019 BDRip 1080p] bober100 Скачать
4 | 0
Фильмы 2019-2020 [DVDrip, WEB-DLRip, HDrip] (DUB, MVO) [ 748 MB ] Пиноккио / Pinocchio [2019 HDRip] bober100 Скачать
2 | 0
Фильмы 2019-2020 [DVDrip, WEB-DLRip, HDrip] (DUB, MVO) [ 2.13 GB ] Пиноккио / Pinocchio [2019 BDRip] - Twi7ter Скачать
18 | 0
Фильмы 2019-2020 [DVDrip, WEB-DLRip, HDrip] (DUB, MVO) [ 1.46 GB ] Пиноккио / Pinocchio [2019 BDRip] - Twi7ter Скачать
32 | 1
Фильмы 2019-2020 [DVDrip, WEB-DLRip, HDrip] (DUB, MVO) [ 2.13 GB ] Пиноккио / Pinocchio [2019 BDRip] bober100 Скачать
2 | 0
Фильмы 2019-2020 [DVDrip, WEB-DLRip, HDrip] (DUB, MVO) [ 1.46 GB ] Пиноккио / Pinocchio [2019 BDRip] bober100 Скачать
3 | 0

28-11-2019 20:33  

Отключить всю рекламу на сайте

    Дорогой пользователь! Огромная просьба, поблагодарите релизера, оцените раздачу и оставьте свои комментарий, если Вы скачали Пиноккио через торрент бесплатно! Внесите свою лепту в развитие PiratBit!
    Комментировать посты могут только пользователи прошедшие не сложную регистрацию
    Показать сообщения:    

    Пиноккио через торрент
    Скачать бесплатно Пиноккио
    Пиноккио скачать торрент
    Пиноккио смотреть онлайн
    Cкачать фильм Пиноккио бесплатно
    Пиноккио скачать торрент в хорошем качестве
    Пиноккио смотреть онлайн бесплатно в хорошем качестве


    Вы не можете начинать темы
    Вы не можете отвечать на сообщения
    Вы не можете редактировать свои сообщения
    Вы не можете удалять свои сообщения
    Вы не можете голосовать в опросах
    Вы не можете прикреплять файлы к сообщениям
    Вы можете скачивать файлы