2 сезон

iTunes

1 сезон

1

iTunes

iTunes

iTunes

1 сезон

RePack

30

ИГРА 18+

pack

ВАЖНО

!!Акция!!

Alien_RageХит недели

RePack

MK11
pack

Забери бонус

RePack

jed

!!Акция!!

Alien_Rage

RePack

fifa19

RePack

Assassins Creed: Odyssey

RePack

NEED FOR SPEED™ PAYBACK

4 сезон

9 сезон

Бесстыжие 9 сезон

Все сериалы

все сериалы на PB.wtf

RePack

FAR CRY 5
  

Проект «Анна Николаевна» / Сезон: 1 / Серии: 1-8 из 8 (Максим Пежемский) [2020, Комедия, фантастика, драма, WEBRip] pb.wtf

Проект «Анна Николаевна» через торрент pb.wtf

Раздают: 5 [ 0 KB/s ] Качают: 2 [ 0 KB/s ]
Размер: 4.35 GB | Добавлен: 4 мес. 20 д. назад | Торрент скачан:291 раз
Скачать  

10-06-2020 03:16 Проект «Анна Николаевна» Скачать торрент  

Проект «Анна Николаевна»
Год выпуска: 2020
Страна: Россия
Жанр: Комедия, фантастика, драма
Продолжительность: ~ 00:50:00
Субтитры: отсутствуют

Режиссер: Максим Пежемский



В ролях: Зоя Бербер, Антон Филипенко, Маруся Климова, Сергей Гармаш, Фёдор Лавров, Кузьма Сапрыкин, Антон Васильев (III), Никита Тарасов, Анна Котова-Дерябина, Ирина Розанова, Алексей Шильников, Дмитрий Поднозов, Юлия Ауг, Александра Сыдорук, Александр Ильин, Даниил Чибриков, Екатерина Ильина (III), Евгений Санников, Михаил Шеломенцев, Владимир Бирюков, Сергей Епишев, Виктор Цекало, Алиса Хазанова, Юлия Шубарева, Александр Баширов, Дмитрий Быковский-Ромашов, Игорь Хрипунов, Павел Деревянко, Михаил Пореченков, Ксения Каталымова, Борис Каморзин, Сергей Ланбамин, Никита Кологривый, Тимофей Трибунцев, Павел Ворожцов, Ольга Румянцева-Лобанова, Ринат Муталлапов

Описание: Отечественные учёные создали андроида-полицейского. Идеальная во всех отношениях капитан Анна Николаевна Королькевич отправляется служить в провинциальный город, чтобы увидеть реальную жизнь и стать похожей на человека. Коллеги думают, что Анна Николаевна — дочь замминистра, и ничто не предвещает беды, пока очеловечивание не заходит слишком далеко.

Качество: WEBRip
Формат: AVI

Видео: XviD build 73, 720x304 (2.35:1), 25.000 fps, ~ 1300 Kbps (~ 0.237 bit/pixel)
Аудио: 48.0 kHz, MP3, 2/0 ch, 192 kbps
скриншот  скриншот  скриншот  скриншот  скриншот  

General
Complete name: D:RazdachiProekt.Anna.Nikolaevna.2020.WEBRip.GeneralFilm1.Proekt.Anna.Nikolaevna.avi
Format: AVI
Format/Info: Audio Video Interleave
File size: 557 MiB
Duration: 51 min 55 s
Overall bit rate: 1 501 kb/s
Writing application: VirtualDubMod 1.5.10.3 | www.virtualdub-fr.org || (build 2550/release)
Writing library: VirtualDubMod build 2550/release

Video
ID: 0
Format: MPEG-4 Visual
Format profile: Advanced Simple@L5
Format settings: BVOP1 / Custom Matrix
Format settings, BVOP: 1
Format settings, QPel: No
Format settings, GMC: No warppoints
Format settings, Matrix: Custom
Codec ID: XVID
Codec ID/Hint: XviD
Duration: 51 min 55 s
Bit rate: 1 299 kb/s
Width: 720 pixels
Height: 304 pixels
Display aspect ratio: 2.35:1
Frame rate: 25.000 FPS
Color space: YUV
Chroma subsampling: 4:2:0
Bit depth: 8 bits
Scan type: Progressive
Compression mode: Lossy
Bits/(Pixel*Frame): 0.237
Stream size: 482 MiB (87%)
Writing library: XviD 73

Audio
ID: 1
Format: MPEG Audio
Format version: Version 1
Format profile: Layer 3
Codec ID: 55
Codec ID/Hint: MP3
Duration: 51 min 55 s
Bit rate mode: Constant
Bit rate: 192 kb/s
Channel(s): 2 channels
Sampling rate: 48.0 kHz
Frame rate: 41.667 FPS (1152 SPF)
Compression mode: Lossy
Stream size: 71.3 MiB (13%)
Alignment: Aligned on interleaves
Interleave, duration: 40 ms (1.00 video frame)
Interleave, preload duratio: 504 ms
Writing library: LAME3.99r
Encoding settings: -m s -V 4 -q 2 -lowpass 18.6 -b 192

pb.wtf



Скачать Проект «Анна Николаевна» через торрент http://pic1.kartinco.top/images/12/wyjsw.jpg Скачать фильм Проект «Анна Николаевна» через торрент бесплантно в хорошем качестве Описание: Отечественные учёные создали андроида-полицейского. Идеальная во всех отношениях капитан Анна Николаевна Королькевич отправляется ... 7.9 10 10
Торрент: Зарегистрирован [2020-06-10 03:16] · скачан: 291 раз
Статус: √ проверено
Размер: 4.35 GB
Как cкачать? Как скачать Проект «Анна Николаевна» через торрент | qTorrent

% Раздел Тема Автор DL S | L
Наши сериалы [ 5.06 GB ] Проект «Анна Николаевна» / Сезон: 1 / Серии: 1-8 из 8 [2020 WEBRip] bober100 Скачать
6 | 4
Наши сериалы [ 5.12 GB ] Проект «Анна Николаевна» / Сезон: 1 / Серии: 1-8 из 8 [2020 WEBRip-AVC] bober100 Скачать
4 | 0
Наши сериалы [ 12.54 GB ] Проект «Анна Николаевна» / Сезон: 1 / Серии: 1-8 из 8 [2020 WEBRip 720p] bober100 Скачать
6 | 1
Наши сериалы [ 18.24 GB ] Проект «Анна Николаевна» / Сезон: 1 / Серии: 1-8 из 8 [2020 WEBRip 1080p] bober100 Скачать
3 | 1

28-11-2019 20:33  

Отключить всю рекламу на сайте

    Дорогой пользователь! Огромная просьба, поблагодарите релизера, оцените раздачу и оставьте свои комментарий, если Вы скачали Проект «Анна Николаевна» через торрент бесплатно! Внесите свою лепту в развитие PiratBit!
    Комментировать посты могут только пользователи прошедшие не сложную регистрацию
    Показать сообщения:    

    Проект «Анна Николаевна» через торрент
    Скачать бесплатно Проект «Анна Николаевна»
    Проект «Анна Николаевна» скачать торрент
    Проект «Анна Николаевна» смотреть онлайн
    Cкачать фильм Проект «Анна Николаевна» бесплатно
    Проект «Анна Николаевна» скачать торрент в хорошем качестве
    Проект «Анна Николаевна» смотреть онлайн бесплатно в хорошем качестве


    Вы не можете начинать темы
    Вы не можете отвечать на сообщения
    Вы не можете редактировать свои сообщения
    Вы не можете удалять свои сообщения
    Вы не можете голосовать в опросах
    Вы не можете прикреплять файлы к сообщениям
    Вы можете скачивать файлы