Anonymous, добрый вечер, присоединяйтесь к нам в Telegram!, здесь всегда актуальный адрес сайта, оперативная поддержка и многое другое!

>

5.6

iTunes

7.4

iTunes

5.7

MVO

1

7.7

1 сезон

6.8

iTunes

7.3

1 сезон

13

6.7

1 сезон

8.3

RePack

30

ULTIMATE

pack

9.9

Лицензия

ВАЖНО

ИГРА 18+

pack

7.3

RePack

MK11

7.7

RePack

jed

7.8

RePack

fifa19

8.5

RePack

RDR2

RePack

NEED FOR SPEED™ PAYBACK

4 сезон

9 сезон

Бесстыжие 9 сезон

Все сериалы

все сериалы на PB.wtf

RePack

FAR CRY 5

Anonymous, добрый вечер, мы катастрофически не успеваем собрать деньги на оплату серверов, помогите нам пожалуйста 5,10,15р., для нас важна любая помощь . В качестве благодарности мы отключим Вам всю рекламу на сайте (укажите свой ник в строку Ваше имя)!

×
  
Magnet ссылка

Солнце 3D в 3Д / 3D Sun 3D (Barry Kimm, Melissa R. Butts) [2007, документальный, короткометражка, BDRip, 1080p] OverUnder / Вертикальная стереопара (VO) pb.wtf

Солнце 3D в 3Д через торрент pb.wtf

Размер: 3.28 GB | Добавлен: 1 год 4 мес. назад | Торрент скачан:10 раз
Смотреть онлайн Солнце 3D в 3Д | Скачать    Ребята, помогите собрать деньги на оплату серверов!!!

10-06-2020 13:15 Солнце 3D в 3Д Скачать торрент  

Солнце 3D / 3D Sun

Год выпуска: 2007
Страна: США (Melrae Pictures)
Жанр: документальный, короткометражка
Продолжительность: 00:23:07

Перевод: Любительский одноголосый закадровый (NoNamed) (перевод любительский Ash61)
Русские субтитры: нет
Режиссеры: Barry Kimm, Melissa R. Butts
Рассказчик: Эл Рокер

Описание: Фильм о миссии НАСА - STEREO. Запуск произведён 25 октября 2006 г. Целью миссии является обеспечение первых в мире стереоскопических измерений для изучения солнечной и космической погоды, включая выбросы корональной массы.

Сэмпл: http://sendfile.su/1564755

Качество: BDrip, 1080p
Контейнер: MKV
Формат 3D: OverUnder / Вертикальная стереопара
Порядок ракурсов: левый ракурс первый
Видео кодек: x264
Аудио кодек: AC3
Видео: Видео: AVC / High@L5.0 / 23,976 fps / 1920х2160 / 18,6 Мбит/сек
Аудио: Русский / AC3 / 48 KHz / 5.1 ch / 640 Кбит/сек(VO - NoNamed)
Аудио 2: Английский / AC3 / 48 KHz / 5.1 ch / 640 Кбит/сек

ВНИМАНИЕ ! На встроенных ТВ-плеерах работать не будет!!!

ТВ Samsung в названии которого есть надпись Ultra HD , и LG Ultra HD 800 серии, LG C6P, Xiaomi Mi TV 2, GRUNDIG VLE 8474 BL воспроизводят полные стереопары встроенными плеерами
Железные плееры на которых воспроизводятся полные стереопары:Popcorn C-200, Popcorn a-400, Dune HD Smart D1 , Dune HD DUO , Dune HD Smart H1 , Dune HD Smart B1 , Dune HD Max , Dune HD TV-303D, Dune HD TV-102, Dune HD Base 3D, Philips HMP7001, Aura HD, MECOOL BB2, Zidoo x9s, Lake I Cloud, MiBox 3
Чтобы изображение было на весь экран в плеере выставляем, если рип 1920х1600 - то выставляем 2.35:1 , если 1920х2160 - то выставляем 16:9
Общее
Уникальный идентификатор : 238846578527577493572424958908299611211 (0xB3B02D8256DC60C39BFF6921DBE60C4B)
Полное имя : E:\видео\3D Sun.Rip by SeRoGa00.mkv
Формат : Matroska
Версия формата : Version 2
Размер файла : 3,28 Гбайт
Продолжительность : 23 м.
Общий поток : 20,3 Мбит/сек
Дата кодирования : UTC 2020-06-09 14:52:01
Программа кодирования : mkvmerge v3.4.0 ('Rapunzel') сборка от May 15 2010 09:38:20
Библиотека кодирования : libebml v0.8.0 + libmatroska v0.9.0

Видео
Идентификатор : 1
Формат : AVC
Формат/Информация : Advanced Video Codec
Профиль формата : High@L5.0
Параметр CABAC формата : Да
Параметр ReFrames формата : 4 кадра
Идентификатор кодека : V_MPEG4/ISO/AVC
Продолжительность : 23 м.
Битрейт : 18,6 Мбит/сек
Ширина : 1920 пикселей
Высота : 2160 пикселей
Соотношение сторон : 0,889
Частота кадров : 23,976 кадра/сек
Цветовое пространство : YUV
Субдискретизация насыщенности : 4:2:0
Битовая глубина : 8 бит
Тип развёртки : Прогрессивная
Бит/(Пиксели*Кадры) : 0.187
Размер потока : 3,01 Гбайт (92%)
Заголовок : Rip by SeRoGa00
Библиотека кодирования : x264 core 157 r2969 d4099dd
Настройки программы : cabac=1 / ref=4 / deblock=1:-3:-3 / analyse=0x3:0x113 / me=umh / subme=10 / psy=1 / psy_rd=1.00:0.15 / mixed_ref=1 / me_range=24 / chroma_me=1 / trellis=2 / 8x8dct=1 / cqm=0 / deadzone=21,11 / fast_pskip=1 / chroma_qp_offset=-3 / threads=18 / lookahead_threads=6 / sliced_threads=0 / nr=0 / decimate=0 / interlaced=0 / bluray_compat=0 / constrained_intra=0 / bframes=10 / b_pyramid=2 / b_adapt=2 / b_bias=0 / direct=3 / weightb=1 / open_gop=0 / weightp=2 / keyint=250 / keyint_min=23 / scenecut=40 / intra_refresh=0 / rc_lookahead=60 / rc=crf / mbtree=1 / crf=16.5 / qcomp=0.60 / qpmin=10 / qpmax=69 / qpstep=4 / vbv_maxrate=40000 / vbv_bufsize=40000 / crf_max=0.0 / nal_hrd=none / filler=0 / ip_ratio=1.40 / aq=1:1.00
Язык : English
Default : Нет
Forced : Нет

Аудио #1
Идентификатор : 2
Формат : AC-3
Формат/Информация : Audio Coding 3
Расширение режима : CM (complete main)
Параметр Endianness формата : Big
Идентификатор кодека : A_AC3
Продолжительность : 23 м.
Вид битрейта : Постоянный
Битрейт : 640 Кбит/сек
Каналы : 6 каналов
Расположение каналов : Front: L C R, Side: L R, LFE
Частота : 48,0 КГц
Битовая глубина : 16 бит
Метод сжатия : С потерями
Размер потока : 106 Мбайт (3%)
Язык : Russian
Default : Да
Forced : Нет

Аудио #2
Идентификатор : 3
Формат : AC-3
Формат/Информация : Audio Coding 3
Расширение режима : CM (complete main)
Параметр Endianness формата : Big
Идентификатор кодека : A_AC3
Продолжительность : 23 м.
Вид битрейта : Постоянный
Битрейт : 640 Кбит/сек
Каналы : 6 каналов
Расположение каналов : Front: L C R, Side: L R, LFE
Частота : 48,0 КГц
Битовая глубина : 16 бит
Метод сжатия : С потерями
Размер потока : 106 Мбайт (3%)
Язык : English
Default : Нет
Forced : Нет

Меню
00:00:00.000 : en:00:00:00.000
00:02:38.991 : en:00:02:38.991
00:03:58.403 : en:00:03:58.403
00:06:35.894 : en:00:06:35.894
00:09:59.599 : en:00:09:59.599
00:10:54.486 : en:00:10:54.486
00:11:27.727 : en:00:11:27.727
00:12:28.748 : en:00:12:28.748
00:15:37.769 : en:00:15:37.769
00:17:25.711 : en:00:17:25.711
00:20:20.676 : en:00:20:20.676
скриншот  

скриншот  

скриншот  

скриншот  

скриншот  

скриншот  

скриншот  
pb.wtf



Скачать Солнце 3D в 3Д через торрент https://c.radikal.ru/c27/2006/48/59cd04f333b6.png Скачать, смотреть онлайн Солнце 3D в 3Д бесплантно в хорошем качестве Описание: Фильм о миссии НАСА - STEREO. Запуск произведён 25 октября 2006 г. Целью миссии является обеспечение первых в мире ... 10 10 1
Торрент: Зарегистрирован [2020-06-10 13:15] · скачан: 10 раз
Статус: √ проверено
Размер: 3.28 GB
Как cкачать? Как скачать Солнце 3D в 3Д через торрент | UTorrent

28-11-2019 20:33  

Отключить всю рекламу на сайте

    Дорогой пользователь! Огромная просьба, поблагодарите релизера, оцените раздачу и оставьте свои комментарий, если Вы скачали Солнце 3D в 3Д через торрент бесплатно!
    Комментировать посты могут только пользователи прошедшие не сложную регистрацию
    Показать сообщения:    

    Солнце 3D в 3Д через торрент
    Скачать бесплатно Солнце 3D в 3Д
    Солнце 3D в 3Д скачать торрент
    Солнце 3D в 3Д смотреть онлайн
    Cкачать фильм Солнце 3D в 3Д бесплатно
    Солнце 3D в 3Д скачать торрент в хорошем качестве
    Солнце 3D в 3Д смотреть онлайн бесплатно в хорошем качестве


    Вы не можете начинать темы
    Вы не можете отвечать на сообщения
    Вы не можете редактировать свои сообщения
    Вы не можете удалять свои сообщения
    Вы не можете голосовать в опросах
    Вы не можете прикреплять файлы к сообщениям
    Вы можете скачивать файлы