2 сезон

iTunes

MVO

1

2 сезон

iTunes

iTunes

1 сезон

RePack

30

Ultimate

ВАЖНО

ИГРА 18+

pack

RePack

MK11
pack

Легкие деньги

RePack

jed

RePack

fifa19

RePack

RDR2

RePack

NEED FOR SPEED™ PAYBACK

4 сезон

9 сезон

Бесстыжие 9 сезон

Все сериалы

все сериалы на PB.wtf

RePack

FAR CRY 5

Anonymous, доброе утро, мы не успеваем собрать деньги на оплату серверов за декабрь и январь, помогите нам пожалуйста в это трудное время. В качестве благодарности мы отключим Вам всю рекламу на сайте (укажите свой ник в строку Ваше имя)!

×
  
Magnet ссылка

13 причин почему / 13 Reasons Why / Сезон: 4 / Серии: 1-10 из 10 (Грегг Араки) [2020, Драма, детектив, WEB-DLRip] MVO [Jaskier] pb.wtf

13 причин почему через торрент pb.wtf

Размер: 7.33 GB | Добавлен: 7 мес. назад | Торрент скачан:16 раз
Скачать  

11-06-2020 14:01 13 причин почему Скачать торрент  

13 причин почему | 13 Reasons Why
Год выпуска: 2020
Страна: США
Студия: July Moon Productions, Universal Studios
Жанр: Драма, детектив
Продолжительность: ~ 00:59:00
Перевод: Профессиональный (многоголосый) | Jaskier
Субтитры: отсутствуют

Режиссер: Грегг Араки

rating

В ролях: Дилан Миннетт, Кэтрин Лэнгфорд, Кейт Уолш, Кристиан Наварро, Майлс Хейзер, Алиша Боэ, Брэндон Флинн, Дерек Люк, Джастин Прентис, Девин Друид и др.

Описание: История старшеклассницы Ханны Бейкер, которая совершила самоубийство, охватывает всю школу. Как показали аудио кассеты, которые она оставила после смерти, все одноклассники так или иначе стали причиной этой трагедии. Единственный человек, который не был к этому причастен и горячо любил Ханну — Клэй

Качество: WEB-DLRip
Формат: AVI

Видео: ~ 1400 kbps, 704x320, 23.976 fps
Аудио#1 Rus: mp3, 48 KHz, 2 ch, 128 kbps
Аудио#2 Eng: mp3, 48 KHz, 2 ch, 128 kbps
скриншот  скриншот  скриншот  

Общее
Полное имя : C:\13 Reasons Why. Season 4 (WEB-DLRip l 400p l Jaskier)\13.Reasons.Why.S04E01.WEB-DLRip.Rus.Eng.Jaskier.avi
Формат : AVI
Формат/Информация : Audio Video Interleave
Размер файла : 703 Мбайт
Продолжительность : 58 м. 56 с.
Общий поток : 1668 Кбит/сек
Программа кодирования : VirtualDubMod 1.5.10.3 | www.virtualdub-fr.org || (build 2550/release)
Библиотека кодирования : VirtualDubMod build 2550/release

Видео
Идентификатор : 0
Формат : MPEG-4 Visual
Профиль формата : Advanced Simple@L5
Настройки формата : BVOP1 / Custom Matrix
Параметр BVOP формата : 1
Параметр QPel формата : Нет
Параметр GMC формата : Без точки перехода
Параметр матрицы формата : Выборочная
Идентификатор кодека : XVID
Идентификатор кодека/Подсказка : XviD
Продолжительность : 58 м. 56 с.
Битрейт : 1336 Кбит/сек
Ширина : 704 пикселя
Высота : 320 пикселей
Соотношение сторон : 2,2:1
Частота кадров : 23,976 (24000/1001) кадра/сек
Цветовое пространство : YUV
Субдискретизация насыщенности : 4:2:0
Битовая глубина : 8 бит
Тип развёртки : Прогрессивная
Метод сжатия : С потерями
Бит/(Пиксели*Кадры) : 0.247
Размер потока : 563 Мбайт (80%)
Библиотека кодирования : XviD 73

Аудио #1
Идентификатор : 1
Формат : MPEG Audio
Версия формата : Version 1
Профиль формата : Layer 3
Настройки формата : Joint stereo / MS Stereo
Идентификатор кодека : 55
Идентификатор кодека/Подсказка : MP3
Продолжительность : 58 м. 56 с.
Вид битрейта : Постоянный
Битрейт : 128 Кбит/сек
Каналы : 2 канала
Частота : 48,0 КГц
Метод сжатия : С потерями
Размер потока : 54,0 Мбайт (8%)
Выравнивание : Соединение по промежуткам

Аудио #2
Идентификатор : 2
Формат : MPEG Audio
Версия формата : Version 1
Профиль формата : Layer 3
Настройки формата : Joint stereo / MS Stereo
Идентификатор кодека : 55
Идентификатор кодека/Подсказка : MP3
Продолжительность : 58 м. 56 с.
Вид битрейта : Постоянный
Битрейт : 128 Кбит/сек
Каналы : 2 канала
Частота : 48,0 КГц
Метод сжатия : С потерями
Размер потока : 54,0 Мбайт (8%)
Выравнивание : Соединение по промежуткам

pb.wtf



Скачать 13 причин почему через торрент https://img10.lostpic.net/2020/06/11/3bf780cfc726ab34a2c23a71d4899b3a.png Скачать фильм 13 причин почему через торрент бесплантно в хорошем качестве Описание: История старшеклассницы Ханны Бейкер, которая совершила самоубийство, охватывает всю школу. Как показали аудио кассеты, которые ... 10 10 2
Торрент: Зарегистрирован [2020-06-14 15:27] · скачан: 16 раз
Статус: √ проверено
Размер: 7.33 GB
Как cкачать? Как скачать 13 причин почему через торрент | UTorrent

% Раздел Тема Автор DL S | L
Зарубежные сериалы [ 19.64 GB ] 13 причин почему / 13 Reasons Why / Сезон: 4 / Серии: 1-10 из 10 [2020 WEB-DL 1080p] MVO [Jaskier] bober100 Скачать
1 | 0
Зарубежные сериалы [ 12.41 GB ] 13 причин почему / 13 Reasons Why / Сезон: 4 / Серии: 1-10 из 10 [2020 WEB-DL 720p] MVO [Jaskier] bober100 Скачать
1 | 0
Зарубежные сериалы [ 21.89 GB ] 13 причин почему / 13 Reasons Why / Сезон: 4 / Серии: 1-10 из 10 [2020 WEB-DL 1080p] killermax2013 Скачать
1 | 0

28-11-2019 20:33  

Отключить всю рекламу на сайте

    Дорогой пользователь! Огромная просьба, поблагодарите релизера, оцените раздачу и оставьте свои комментарий, если Вы скачали 13 причин почему через торрент бесплатно! Внесите свою лепту в развитие PiratBit!
    Комментировать посты могут только пользователи прошедшие не сложную регистрацию
    Показать сообщения:    

    13 причин почему через торрент
    Скачать бесплатно 13 причин почему
    13 причин почему скачать торрент
    13 причин почему смотреть онлайн
    Cкачать фильм 13 причин почему бесплатно
    13 причин почему скачать торрент в хорошем качестве
    13 причин почему смотреть онлайн бесплатно в хорошем качестве


    Вы не можете начинать темы
    Вы не можете отвечать на сообщения
    Вы не можете редактировать свои сообщения
    Вы не можете удалять свои сообщения
    Вы не можете голосовать в опросах
    Вы не можете прикреплять файлы к сообщениям
    Вы можете скачивать файлы