Ссылка на приватное зеркало нашего сайта всего за 1$. Внимание количество ограничено!!!

2 сезон

iTunes

1 сезон

1

iTunes

iTunes

iTunes

1 сезон

RePack

30

ИГРА 18+

pack

ВАЖНО

!!Акция!!

Alien_RageХит недели

RePack

MK11
pack

Забери бонус

RePack

jed

!!Акция!!

Alien_Rage

RePack

fifa19

RePack

Assassins Creed: Odyssey

RePack

NEED FOR SPEED™ PAYBACK

4 сезон

9 сезон

Бесстыжие 9 сезон

Все сериалы

все сериалы на PB.wtf

RePack

FAR CRY 5
  

Анка с Молдаванки / Сезон: 1 / Серии: 1-10 из 10 (Владимир Янощук) [2015, Мелодрама, криминал, SATRip] pb.wtf

Анка с Молдаванки через торрент pb.wtf

Раздают: 1 [ 0 KB/s ]
Размер: 5.58 GB | Добавлен: 4 мес. 17 д. назад | Торрент скачан:100 раз
Скачать  

12-06-2020 09:22 Анка с Молдаванки Скачать торрент  

Анка с Молдаванки
Год выпуска: 2015
Страна: Россия
Жанр: Мелодрама, криминал
Продолжительность: ~ 00:45:00
Субтитры: отсутствуют

Режиссер: Владимир Янощук

rating

В ролях: Екатерина Кузнецова, Антон Шагин, Станислав Бондаренко, Сергей Калантай, Тамара Морозова, Виталий Салий, Валерий Бассэль, Владислав Волк, Юлия Гершаник, Евгений Гиммельфарб, Юрий Глухарев, Анатолий Головань (II), Владимир Лилицкий, Виктор Раду, Леонид Титов (II), Денис Фалюта, Валерий Швец, Игорь Рубашкин, Олег Школьник, Ирина Токарчук, Сергей Юрков

Описание: 1970-е годы, Одесса. Аня Ксенаки – девушка из интеллигентной семьи, однажды знакомится с молодым человеком Аркадием Сотниковым. Вскоре выясняется, что он является главарем одесской банды, промышляющей грабежами. Но криминальная романтика увлекает Аню. Она влюбляется в Сотникова и вместе с ним начинает планировать преступления, проявляя при этом незаурядную выдумку и фантазию. Сотников же после встречи с Аней грабит только для того, чтобы начать новую жизнь.

Качество: SATRip
Формат: AVI

Видео: XviD, 1800 Кбит/с, 720х400
Аудио: MP3, 2 ch, 128 Кбит/с
скриншот  скриншот  скриншот  скриншот  скриншот  

Общее
Полное имя : C:\Анка с Молдаванки 2015 SATRip\01.avi
Формат : AVI
Формат/Информация : Audio Video Interleave
Размер файла : 499 Мбайт
Продолжительность : 36 м. 1 с.
Общий поток : 1937 Кбит/сек
Программа кодирования : VirtualDubMod 1.5.10.3 | www.virtualdub-fr.org || (build 2550/release)
Библиотека кодирования : VirtualDubMod build 2550/release

Видео
Идентификатор : 0
Формат : MPEG-4 Visual
Профиль формата : Advanced Simple@L5
Настройки формата : BVOP2
Параметр BVOP формата : 2
Параметр QPel формата : Нет
Параметр GMC формата : Без точки перехода
Параметр матрицы формата : Default (MPEG)
Идентификатор кодека : XVID
Идентификатор кодека/Подсказка : XviD
Продолжительность : 36 м. 1 с.
Битрейт : 1800 Кбит/сек
Ширина : 720 пикселей
Высота : 400 пикселей
Соотношение сторон : 16:9
Частота кадров : 25,000 кадров/сек
Цветовое пространство : YUV
Субдискретизация насыщенности : 4:2:0
Битовая глубина : 8 бит
Тип развёртки : Прогрессивная
Метод сжатия : С потерями
Бит/(Пиксели*Кадры) : 0.250
Размер потока : 464 Мбайт (93%)
Библиотека кодирования : XviD 1.2.1 (UTC 2008-12-04)

Аудио
Идентификатор : 1
Формат : MPEG Audio
Версия формата : Version 1
Профиль формата : Layer 3
Настройки формата : Joint stereo / MS Stereo
Идентификатор кодека : 55
Идентификатор кодека/Подсказка : MP3
Продолжительность : 36 м. 1 с.
Вид битрейта : Постоянный
Битрейт : 128 Кбит/сек
Каналы : 2 канала
Частота : 48,0 КГц
Частота кадров : 41,667 кадра/сек (1152 SPF)
Метод сжатия : С потерями
Размер потока : 33,0 Мбайт (7%)
Выравнивание : Соединение по промежуткам
Продолжительность промежутка : 40 мс. (1,00 видеокадр)
Время предзагрузки промежутка : 504 мс.
Библиотека кодирования : LAME3.99r
Настройки программы : -m j -V 4 -q 9 -lowpass 17 -b 128

pb.wtf



Скачать Анка с Молдаванки через торрент http://img10.lostpic.net/2015/11/23/6ddd3a9a5d427498658c9fa5f49c2e80.jpg Скачать фильм Анка с Молдаванки через торрент бесплантно в хорошем качестве Описание: 1970-е годы, Одесса. Аня Ксенаки – девушка из интеллигентной семьи, однажды знакомится с молодым человеком Аркадием Сотниковым. ... 10 10 5
Торрент: Зарегистрирован [2020-06-12 09:22] · скачан: 100 раз
Статус: √ проверено
Размер: 5.58 GB
Как cкачать? Как скачать Анка с Молдаванки через торрент | qTorrent

% Раздел Тема Автор DL S | L
Наши сериалы [ 8.41 GB ] Анка с Молдаванки / Сезон: 1 / Серии: 1-10 из 10 [2015 Мело WEB-DL 720p] bober100 Скачать
1 | 0
Наши сериалы [ 25.12 GB ] Анка с Молдаванки / Сезон: 1 / Серии: 1-10 из 10 [2015 Мело HDTV 1080i] bober100 Скачать
1 | 0

28-11-2019 20:33  

Отключить всю рекламу на сайте

    Дорогой пользователь! Огромная просьба, поблагодарите релизера, оцените раздачу и оставьте свои комментарий, если Вы скачали Анка с Молдаванки через торрент бесплатно! Внесите свою лепту в развитие PiratBit!
    Комментировать посты могут только пользователи прошедшие не сложную регистрацию
    Показать сообщения:    

    Анка с Молдаванки через торрент
    Скачать бесплатно Анка с Молдаванки
    Анка с Молдаванки скачать торрент
    Анка с Молдаванки смотреть онлайн
    Cкачать фильм Анка с Молдаванки бесплатно
    Анка с Молдаванки скачать торрент в хорошем качестве
    Анка с Молдаванки смотреть онлайн бесплатно в хорошем качестве


    Вы не можете начинать темы
    Вы не можете отвечать на сообщения
    Вы не можете редактировать свои сообщения
    Вы не можете удалять свои сообщения
    Вы не можете голосовать в опросах
    Вы не можете прикреплять файлы к сообщениям
    Вы можете скачивать файлы