Ссылка на приватное зеркало нашего сайта всего за 1$. Внимание количество ограничено!!!

2 сезон

iTunes

1 сезон

1

iTunes

iTunes

iTunes

1 сезон

RePack

30

ИГРА 18+

pack

ВАЖНО

!!Акция!!

Alien_RageХит недели

RePack

MK11
pack

Забери бонус

RePack

jed

!!Акция!!

Alien_Rage

RePack

fifa19

RePack

Assassins Creed: Odyssey

RePack

NEED FOR SPEED™ PAYBACK

4 сезон

9 сезон

Бесстыжие 9 сезон

Все сериалы

все сериалы на PB.wtf

RePack

FAR CRY 5
  

Чума! / Сезон: 1 / Серии: 1-6 из 6 (Байбулат Батуллин) [2020, Комедия, WEB-DLRip] pb.wtf

Чума! через торрент pb.wtf

Размер: 1.34 GB | Добавлен: 4 мес. 13 д. назад | Торрент скачан:63 раза
Скачать  

12-06-2020 13:33 Чума! Скачать торрент  

Чума!
Год выпуска: 2020
Страна: Россия
Студия: IVI
Жанр: Комедия
Продолжительность: ~ 00:18:00
Субтитры: отсутствуют

Режиссер: Байбулат Батуллин



В ролях: Максим Лагашкин, Вячеслав Чепурченко, Зоя Бербер, Игорь Ознобихин, Надежда Сысоева, Омар Алибутаев, Дмитрий Хасис, Иван Купреенко, Денис Привалов, Всеволод Москвин, Ева Смирнова (II), Мария Горбань, Агата Муцениеце, Александр Волохов (II), Иван Кулаков, Дмитрий Красилов, Ольга Веникова, Наталия Ящук, Сафия Яруллина, Байбулат Батуллин, Бахтияр Ташбулатов, Алексей Шатин, Артём Смирнов, Дмитрий Логинов, Сергей Ужахов, Сергей Бондарь, Леся Кыдык, Ксения Рожкован, Сергей Шнуров

Описание: Это комедия о том, как люди средневековья справляются с новыми карантинными реалиями, пока за стенами замка бушует чума. По сюжету, жители вымышленного городка Нищбург оказываются заперты в замке на карантине. Палачи казнят людей на «удалёнке», печенеги совершают набеги на город в масках.

Качество: WEB-DLRip
Формат: AVI

Видео: 720x400 (1.80:1), 25 fps, XviD build 73 ~1600 kbps avg, 0.22 bit/pixel
Аудио: 48.0 kHz, AC3 Dolby Digital, 2/0 (L,R) ch, ~ 192 kbps
скриншот  скриншот  скриншот  скриншот  

General
Complete name : H:\fiiles x\Чума.2020.WEB-DLRip.Files-x\01. Чума.2020.WEB-DLRip.Files-x.avi
Format : AVI
Format/Info : Audio Video Interleave
File size : 215 MiB
Duration : 16mn 39s
Overall bit rate : 1 801 Kbps
Writing application : VirtualDubMod 1.5.10.3 | www.virtualdub-fr.org || (build 2550/release)
Writing library : VirtualDubMod build 2550/release

Video
ID : 0
Format : MPEG-4 Visual
Format profile : Advanced Simple@L5
Format settings, BVOP : 1
Format settings, QPel : No
Format settings, GMC : No warppoints
Format settings, Matrix : Custom
Codec ID : XVID
Codec ID/Hint : XviD
Duration : 16mn 39s
Bit rate : 1 599 Kbps
Width : 720 pixels
Height : 400 pixels
Display aspect ratio : 16:9
Frame rate : 25.000 fps
Color space : YUV
Chroma subsampling : 4:2:0
Bit depth : 8 bits
Scan type : Progressive
Compression mode : Lossy
Bits/(Pixel*Frame) : 0.222
Stream size : 190 MiB (89%)
Writing library : XviD 73

Audio
ID : 1
Format : AC-3
Format/Info : Audio Coding 3
Mode extension : CM (complete main)
Codec ID : 2000
Duration : 16mn 39s
Bit rate mode : Constant
Bit rate : 192 Kbps
Channel(s) : 2 channels
Channel positions : Front: L R
Sampling rate : 48.0 KHz
Bit depth : 16 bits
Compression mode : Lossy
Stream size : 22.9 MiB (11%)
Alignment : Split accross interleaves
Interleave, duration : 40 ms (1.00 video frame)
Interleave, preload duration : 500 ms

pb.wtf



Скачать Чума! через торрент http://3.lostpic.net/images/2020/05/29/9dbf2cb9e5477563b3b5ef1b43959c0b.th.jpg Скачать фильм Чума! через торрент бесплантно в хорошем качестве Описание: Это комедия о том, как люди средневековья справляются с новыми карантинными реалиями, пока за стенами замка бушует чума. По ... 10 10 3
Торрент: Зарегистрирован [2020-06-12 13:33] · скачан: 63 раз
Статус: √ проверено
Размер: 1.34 GB
Как cкачать? Как скачать Чума! через торрент | qTorrent

% Раздел Тема Автор DL S | L
Наши сериалы [ 1.31 GB ] Чума! / Сезон: 1 / Серии: 1-6 из 6 [2020 WEB-DLRip] bober100 Скачать
2 | 0
Наши сериалы [ 4 GB ] Чума! / Сезон: 1 / Серии: 1-6 из 6 [2020 WEB-DL 1080p] bober100 Скачать
3 | 0
Наши сериалы [ 2.1 GB ] Чума! / Сезон: 1 / Серии: 1-6 из 6 [2020 WEB-DL 720p] bober100 Скачать
2 | 0
Наши сериалы [ 1.33 GB ] Чума! / Сезон: 1 / Серии: 1-6 из 6 [2020 WEB-DLRip-AVC] bober100 Скачать
1 | 0
Зарубежные сериалы [ 33.94 GB ] Чума / La Peste / Сезон: 1 / Серии: 1-6 из 6 [2018 история BDRip 1080p] MVO [TVShows] bober100 Скачать
1 | 0
Зарубежные сериалы [ 4.96 GB ] Чума / La Peste / Сезон: 1 / Серии: 1-6 из 6 [2018 история HDRip] MVO [TVShows] bober100 Скачать
1 | 0
Зарубежные сериалы [ 11.12 GB ] Чума / La Peste / Сезон: 1 / Серии: 1-6 из 6 [2018 история BDRip 720p] MVO [TVShows] bober100 Скачать
1 | 0

28-11-2019 20:33  

Отключить всю рекламу на сайте

    Дорогой пользователь! Огромная просьба, поблагодарите релизера, оцените раздачу и оставьте свои комментарий, если Вы скачали Чума! через торрент бесплатно! Внесите свою лепту в развитие PiratBit!
    Комментировать посты могут только пользователи прошедшие не сложную регистрацию
    Показать сообщения:    

    Чума! через торрент
    Скачать бесплатно Чума!
    Чума! скачать торрент
    Чума! смотреть онлайн
    Cкачать фильм Чума! бесплатно
    Чума! скачать торрент в хорошем качестве
    Чума! смотреть онлайн бесплатно в хорошем качестве


    Вы не можете начинать темы
    Вы не можете отвечать на сообщения
    Вы не можете редактировать свои сообщения
    Вы не можете удалять свои сообщения
    Вы не можете голосовать в опросах
    Вы не можете прикреплять файлы к сообщениям
    Вы можете скачивать файлы