Ссылка на приватное зеркало нашего сайта всего за 1$. Внимание количество ограничено!!!

2 сезон

iTunes

1 сезон

1

iTunes

iTunes

iTunes

1 сезон

RePack

30

ИГРА 18+

pack

ВАЖНО

!!Акция!!

Alien_RageХит недели

RePack

MK11
pack

Забери бонус

RePack

jed

!!Акция!!

Alien_Rage

RePack

fifa19

RePack

Assassins Creed: Odyssey

RePack

NEED FOR SPEED™ PAYBACK

4 сезон

9 сезон

Бесстыжие 9 сезон

Все сериалы

все сериалы на PB.wtf

RePack

FAR CRY 5
  

Чума! / Сезон: 1 / Серии: 1-6 из 6 (Байбулат Батуллин) [2020, Комедия, WEB-DLRip-AVC] pb.wtf

Чума! через торрент pb.wtf

Размер: 1.33 GB | Добавлен: 4 мес. 15 д. назад | Торрент скачан:54 раза
Скачать  

12-06-2020 13:33 Чума! Скачать торрент  

Чума!
Год выпуска: 2020
Страна: Россия
Студия: IVI
Жанр: Комедия
Продолжительность: ~ 00:18:00
Субтитры: отсутствуют

Режиссер: Байбулат Батуллин



В ролях: Максим Лагашкин, Вячеслав Чепурченко, Зоя Бербер, Игорь Ознобихин, Надежда Сысоева, Омар Алибутаев, Дмитрий Хасис, Иван Купреенко, Денис Привалов, Всеволод Москвин, Ева Смирнова (II), Мария Горбань, Агата Муцениеце, Александр Волохов (II), Иван Кулаков, Дмитрий Красилов, Ольга Веникова, Наталия Ящук, Сафия Яруллина, Байбулат Батуллин, Бахтияр Ташбулатов, Алексей Шатин, Артём Смирнов, Дмитрий Логинов, Сергей Ужахов, Сергей Бондарь, Леся Кыдык, Ксения Рожкован, Сергей Шнуров

Описание: Это комедия о том, как люди средневековья справляются с новыми карантинными реалиями, пока за стенами замка бушует чума. По сюжету, жители вымышленного городка Нищбург оказываются заперты в замке на карантине. Палачи казнят людей на «удалёнке», печенеги совершают набеги на город в масках.

Качество: WEB-DLRip-AVC
Формат: MKV

Видео: 1024x576, (16:9), 25 fps, AVC MPEG-4 (x264), High@L4.1 ~ 1600 kbps , 0.109 bit/pixel
Аудио: 48.0 kHz, AC3 Dolby Digital, 2/0 (L,R) ch, ~ 192 kbps
скриншот  скриншот  скриншот  скриншот  скриншот  

Общее
Уникальный идентификатор : 180662724953109462788351347259051155698 (0x87EA600BF0743E52ACA2FA11B21D20F2)
Полное имя : C:\Чума!.(2020).WEB-DLRip.(AVC).Files-x\01.Chuma.(2020).WEB-DLRip.(AVC).by.Серый1779.Files-x.mkv
Формат : Matroska
Версия формата : Version 2
Размер файла : 214 Мбайт
Продолжительность : 16 м. 39 с.
Общий поток : 1 793 Кбит/сек
Дата кодирования : UTC 2020-05-29 19:42:38
Программа кодирования : mkvmerge v7.8.0 ('River Man') 32bit built on Apr 3 2015 12:11:22
Библиотека кодирования : libebml v1.3.1 + libmatroska v1.4.2

Видео
Идентификатор : 1
Формат : AVC
Формат/Информация : Advanced Video Codec
Профиль формата : High@L4.1
Настройки формата : CABAC / 9 Ref Frames
Параметр CABAC формата : Да
Параметр RefFrames формата : 9 кадров
Идентификатор кодека : V_MPEG4/ISO/AVC
Продолжительность : 16 м. 39 с.
Битрейт : 1 600 Кбит/сек
Ширина : 1 024 пикселя
Высота : 576 пикселей
Соотношение сторон : 16:9
Режим частоты кадров : Постоянный
Частота кадров : 25,000 кадров/сек
Цветовое пространство : YUV
Субдискретизация насыщенности : 4:2:0
Битовая глубина : 8 бит
Тип развёртки : Прогрессивная
Бит/(Пиксели*Кадры) : 0.109
Размер потока : 186 Мбайт (87%)
Библиотека кодирования : x264 core 146 r2538 121396c
Настройки программы : cabac=1 / ref=9 / deblock=1:-2:-1 / analyse=0x3:0x133 / me=umh / subme=9 / psy=1 / psy_rd=1.00:0.15 / mixed_ref=1 / me_range=32 / chroma_me=1 / trellis=2 / 8x8dct=1 / cqm=0 / deadzone=21,11 / fast_pskip=0 / chroma_qp_offset=-3 / threads=18 / lookahead_threads=3 / sliced_threads=0 / nr=0 / decimate=1 / interlaced=0 / bluray_compat=0 / constrained_intra=0 / bframes=9 / b_pyramid=2 / b_adapt=2 / b_bias=0 / direct=1 / weightb=1 / open_gop=0 / weightp=2 / keyint=250 / keyint_min=25 / scenecut=40 / intra_refresh=0 / rc=2pass / mbtree=0 / bitrate=1600 / ratetol=1.0 / qcomp=0.60 / qpmin=0 / qpmax=69 / qpstep=4 / cplxblur=20.0 / qblur=0.5 / ip_ratio=1.40 / pb_ratio=1.30 / aq=2:1.00
Default : Да
Forced : Нет
Цветовой диапазон : Limited
Основные цвета : BT.709
Характеристики трансфера : BT.709
Коэффициенты матрицы : BT.709
Duration_Source : General_Duration

Аудио
Идентификатор : 2
Формат : AC-3
Формат/Информация : Audio Coding 3
Коммерческое название : Dolby Digital
Идентификатор кодека : A_AC3
Продолжительность : 16 м. 39 с.
Вид битрейта : Постоянный
Битрейт : 192 Кбит/сек
Каналы : 2 канала
Channel layout : L R
Частота : 48,0 КГц
Частота кадров : 31,250 кадров/сек (1536 SPF)
Метод сжатия : С потерями
Размер потока : 22,9 Мбайт (11%)
Service kind : Complete Main
Default : Да
Forced : Нет
Duration_Source : General_Duration

pb.wtf



Скачать Чума! через торрент http://3.lostpic.net/images/2020/05/29/9dbf2cb9e5477563b3b5ef1b43959c0b.th.jpg Скачать фильм Чума! через торрент бесплантно в хорошем качестве Описание: Это комедия о том, как люди средневековья справляются с новыми карантинными реалиями, пока за стенами замка бушует чума. По ... 10 10 2
Торрент: Зарегистрирован [2020-06-12 13:33] · скачан: 54 раз
Статус: √ проверено
Размер: 1.33 GB
Как cкачать? Как скачать Чума! через торрент | qTorrent

% Раздел Тема Автор DL S | L
Наши сериалы [ 1.31 GB ] Чума! / Сезон: 1 / Серии: 1-6 из 6 [2020 WEB-DLRip] bober100 Скачать
3 | 0
Наши сериалы [ 4 GB ] Чума! / Сезон: 1 / Серии: 1-6 из 6 [2020 WEB-DL 1080p] bober100 Скачать
4 | 0
Наши сериалы [ 2.1 GB ] Чума! / Сезон: 1 / Серии: 1-6 из 6 [2020 WEB-DL 720p] bober100 Скачать
2 | 0
Наши сериалы [ 1.34 GB ] Чума! / Сезон: 1 / Серии: 1-6 из 6 [2020 WEB-DLRip] bober100 Скачать
1 | 0
Зарубежные сериалы [ 33.94 GB ] Чума / La Peste / Сезон: 1 / Серии: 1-6 из 6 [2018 история BDRip 1080p] MVO [TVShows] bober100 Скачать
1 | 0
Зарубежные сериалы [ 4.96 GB ] Чума / La Peste / Сезон: 1 / Серии: 1-6 из 6 [2018 история HDRip] MVO [TVShows] bober100 Скачать
1 | 0
Зарубежные сериалы [ 11.12 GB ] Чума / La Peste / Сезон: 1 / Серии: 1-6 из 6 [2018 история BDRip 720p] MVO [TVShows] bober100 Скачать
1 | 0

28-11-2019 20:33  

Отключить всю рекламу на сайте

    Дорогой пользователь! Огромная просьба, поблагодарите релизера, оцените раздачу и оставьте свои комментарий, если Вы скачали Чума! через торрент бесплатно! Внесите свою лепту в развитие PiratBit!
    Комментировать посты могут только пользователи прошедшие не сложную регистрацию
    Показать сообщения:    

    Чума! через торрент
    Скачать бесплатно Чума!
    Чума! скачать торрент
    Чума! смотреть онлайн
    Cкачать фильм Чума! бесплатно
    Чума! скачать торрент в хорошем качестве
    Чума! смотреть онлайн бесплатно в хорошем качестве


    Вы не можете начинать темы
    Вы не можете отвечать на сообщения
    Вы не можете редактировать свои сообщения
    Вы не можете удалять свои сообщения
    Вы не можете голосовать в опросах
    Вы не можете прикреплять файлы к сообщениям
    Вы можете скачивать файлы