Anonymous, добрый вечер, присоединяйтесь к нам в Telegram!, здесь всегда актуальный адрес сайта, оперативная поддержка и многое другое!

>

5.5

iTunes

7.4

iTunes

7.9

iTunes

1

7.7

1 сезон

6.8

iTunes

7.3

1 сезон

13

6.7

1 сезон

8.3

RePack

30

ULTIMATE

pack

9.9

Лицензия

ВАЖНО

ИГРА 18+

pack

7.3

RePack

MK11

7.7

RePack

jed

7.8

RePack

fifa19

8.5

RePack

RDR2

RePack

NEED FOR SPEED™ PAYBACK

4 сезон

9 сезон

Бесстыжие 9 сезон

Все сериалы

все сериалы на PB.wtf

RePack

FAR CRY 5

Anonymous, добрый вечер, мы катастрофически не успеваем собрать деньги на оплату серверов, помогите нам пожалуйста 5,10,15р., для нас важна любая помощь . В качестве благодарности мы отключим Вам всю рекламу на сайте (укажите свой ник в строку Ваше имя)!

×
  
Magnet ссылка

Планета динозавров: Совершенные убийцы в 3Д / Planet Dinosaur: Ultimate Killers 3D (Найджел Патерсон / Nigel Paterson) [2012, Документальный, BDRip, 1080p] OverUnder / Вертикальная стереопара (VO) pb.wtf

Планета динозавров: Совершенные убийцы в 3Д через торрент pb.wtf

Размер: 9.08 GB | Добавлен: 1 год 4 мес. назад | Торрент скачан:30 раз
Смотреть онлайн Планета динозавров: Совершенные убийцы в 3Д | Скачать    Ребята, помогите собрать деньги на оплату серверов!!!

13-06-2020 12:53 Планета динозавров: Совершенные убийцы в 3Д Скачать торрент  

Планета динозавров: Совершенные убийцы / Planet Dinosaur: Ultimate Killers

Год выпуска: 2012
Страна: Великобритания (BBC, Canal+, Jellyfish Pictures)
Жанр: Документальный
Продолжительность: 00:52:51

Перевод: Одноголосый закадровый (В. Курдов)
Русские субтитры: нет
Режиссер: Найджел Патерсон / Nigel Paterson
Рассказчик на английском: Джон Хёрт / John Hurt

Описание: Блю-рэй, изданный в 3Д на основе шестисерийного сериала БиБиСи "Planet Dinosaur" (2011).
О сериале:
"«Планета динозавров» является самым амбициозным проектом, созданным с помощью компьютерной графики, после «Прогулок с динозаврами» (Walking with Dinosaurs), выпущенных десятилетие назад.
Работа над фильмом началась на студии Jellyfish Pictures в апреле 2010 года и завершится к этой осени на студии BBC1.
Всего в проекте показано 50 динозавров, созданных в компьютерной графике, в 2500 сценах. Все они были спроектированы на студии Jellyfish командой из художников-раскадровщиков, художников-превизуализаторов, цифровых скульпторов, специалистов по моделированию, специалистов по созданию текстур и концептов, специалистов по Matte Painting, монтажеров, художников-мультипликаторов, осветителей и компоновщиков.
«При создании 2D сериала мы применяли рабочий процесс, схожий с процессом художественного фильма, хотя цикл создания изображений был намного короче, а бюджет меньше. Однако у нас были грандиозные планы, - сказал Фил Добри, управляющий директор Jellyfish Pictures, - У нас была мобильная камера, множество съемок с рук, взаимодействий динозавров друг с другом и с окружающей средой. Команда декораторов и осветителей разработала целую экосистему для генерации компьютерной графикой окружающей среды с замысловатыми местностями, растениями и скалами»."

Сэмпл: http://sendfile.su/1565013

Качество: BDrip, 1080p
Контейнер: MKV
Формат 3D: OverUnder / Вертикальная стереопара
Порядок ракурсов: левый ракурс первый
Видео кодек: x264
Аудио кодек: DTS
Видео: Видео: AVC / High@L5.0 / 23,976 fps / 1920х2160 / 22,0 Мбит/сек
Аудио: Русский / DTS / 48 KHz / 5.1 ch / 1510 Кбит/сек(VO - В. Курдов)
Аудио 2: Английский / AC3 / 48 KHz / 5.1 ch / 640 Кбит/сек

ВНИМАНИЕ ! На встроенных ТВ-плеерах работать не будет!!!

ТВ Samsung в названии которого есть надпись Ultra HD , и LG Ultra HD 800 серии, LG C6P, Xiaomi Mi TV 2, GRUNDIG VLE 8474 BL воспроизводят полные стереопары встроенными плеерами
Железные плееры на которых воспроизводятся полные стереопары:Popcorn C-200, Popcorn a-400, Dune HD Smart D1 , Dune HD DUO , Dune HD Smart H1 , Dune HD Smart B1 , Dune HD Max , Dune HD TV-303D, Dune HD TV-102, Dune HD Base 3D, Philips HMP7001, Aura HD, MECOOL BB2, Zidoo x9s, Lake I Cloud, MiBox 3
Чтобы изображение было на весь экран в плеере выставляем, если рип 1920х1600 - то выставляем 2.35:1 , если 1920х2160 - то выставляем 16:9
Общее
Уникальный идентификатор : 236467221112018702876087315714373203154 (0xB1E5EE219FD7DE6182558519517634D2)
Полное имя : E:\видео\Planet Dinosaur Ultimate Killers.Rip by SeRoGa00.mkv
Формат : Matroska
Версия формата : Version 2
Размер файла : 9,08 Гбайт
Продолжительность : 52 м.
Общий поток : 24,6 Мбит/сек
Дата кодирования : UTC 2020-06-13 02:47:43
Программа кодирования : mkvmerge v3.4.0 ('Rapunzel') сборка от May 15 2010 09:38:20
Библиотека кодирования : libebml v0.8.0 + libmatroska v0.9.0

Видео
Идентификатор : 1
Формат : AVC
Формат/Информация : Advanced Video Codec
Профиль формата : High@L5.0
Параметр CABAC формата : Да
Параметр ReFrames формата : 4 кадра
Идентификатор кодека : V_MPEG4/ISO/AVC
Продолжительность : 52 м.
Битрейт : 22,0 Мбит/сек
Ширина : 1920 пикселей
Высота : 2160 пикселей
Соотношение сторон : 0,889
Частота кадров : 23,976 кадра/сек
Цветовое пространство : YUV
Субдискретизация насыщенности : 4:2:0
Битовая глубина : 8 бит
Тип развёртки : Прогрессивная
Бит/(Пиксели*Кадры) : 0.221
Размер потока : 8,10 Гбайт (89%)
Заголовок : Rip by SeRoGa00
Библиотека кодирования : x264 core 157 r2969 d4099dd
Настройки программы : cabac=1 / ref=4 / deblock=1:-3:-3 / analyse=0x3:0x113 / me=umh / subme=10 / psy=1 / psy_rd=1.00:0.15 / mixed_ref=1 / me_range=24 / chroma_me=1 / trellis=2 / 8x8dct=1 / cqm=0 / deadzone=21,11 / fast_pskip=1 / chroma_qp_offset=-3 / threads=18 / lookahead_threads=6 / sliced_threads=0 / nr=0 / decimate=0 / interlaced=0 / bluray_compat=0 / constrained_intra=0 / bframes=10 / b_pyramid=2 / b_adapt=2 / b_bias=0 / direct=3 / weightb=1 / open_gop=0 / weightp=2 / keyint=250 / keyint_min=23 / scenecut=40 / intra_refresh=0 / rc_lookahead=60 / rc=crf / mbtree=1 / crf=16.5 / qcomp=0.60 / qpmin=10 / qpmax=69 / qpstep=4 / vbv_maxrate=40000 / vbv_bufsize=40000 / crf_max=0.0 / nal_hrd=none / filler=0 / ip_ratio=1.40 / aq=1:1.00
Язык : English
Default : Нет
Forced : Нет

Аудио #1
Идентификатор : 2
Формат : DTS
Формат/Информация : Digital Theater Systems
Идентификатор кодека : A_DTS
Продолжительность : 52 м.
Вид битрейта : Постоянный
Битрейт : 1510 Кбит/сек
Каналы : 6 каналов
Расположение каналов : Front: L C R, Side: L R, LFE
Частота : 48,0 КГц
Битовая глубина : 24 бит
Метод сжатия : С потерями
Размер потока : 571 Мбайт (6%)
Язык : Russian
Default : Да
Forced : Нет

Аудио #2
Идентификатор : 3
Формат : AC-3
Формат/Информация : Audio Coding 3
Расширение режима : CM (complete main)
Параметр Endianness формата : Big
Идентификатор кодека : A_AC3
Продолжительность : 52 м.
Вид битрейта : Постоянный
Битрейт : 640 Кбит/сек
Каналы : 6 каналов
Расположение каналов : Front: L C R, Side: L R, LFE
Частота : 48,0 КГц
Битовая глубина : 16 бит
Метод сжатия : С потерями
Размер потока : 242 Мбайт (3%)
Язык : English
Default : Нет
Forced : Нет

Меню
00:00:00.000 : en:00:00:00.000
00:09:08.965 : en:00:09:08.965
00:15:32.056 : en:00:15:32.056
00:22:49.326 : en:00:22:49.326
00:29:03.325 : en:00:29:03.325
00:36:43.827 : en:00:36:43.827
00:43:18.513 : en:00:43:18.513
00:52:15.090 : en:00:52:15.090
скриншот  

скриншот  

скриншот  

скриншот  

скриншот  

скриншот  
pb.wtf



Скачать Планета динозавров: Совершенные убийцы в 3Д через торрент https://c.radikal.ru/c14/2006/00/a5b2f2c39deb.png Скачать, смотреть онлайн Планета динозавров: Совершенные убийцы в 3Д бесплантно в хорошем качестве Описание: Блю-рэй, изданный в 3Д на основе шестисерийного сериала БиБиСи "Planet Dinosaur" (2011).О сериале:"«Планета динозавров» является ... 5 10 1
Торрент: Зарегистрирован [2020-06-13 12:53] · скачан: 30 раз
Статус: √ проверено
Размер: 9.08 GB
Как cкачать? Как скачать Планета динозавров: Совершенные убийцы в 3Д через торрент | UTorrent

28-11-2019 20:33  

Отключить всю рекламу на сайте

14-06-2020 15:56 Планета динозавров: Совершенные убийцы в 3Д Скачать торрент  

Есть версия для тех, у кого не 3D экран?pb.wtf



16-06-2020 13:51 Планета динозавров: Совершенные убийцы в 3Д Скачать торрент  

Если не найдете 2Д версию, можно в Stereoscopic Player выбрать режим моно и смотреть этот рип.pb.wtf



    Дорогой пользователь! Огромная просьба, поблагодарите релизера, оцените раздачу и оставьте свои комментарий, если Вы скачали Планета динозавров: Совершенные убийцы в 3Д через торрент бесплатно!
    Комментировать посты могут только пользователи прошедшие не сложную регистрацию
    Показать сообщения:    

    Планета динозавров: Совершенные убийцы в 3Д через торрент
    Скачать бесплатно Планета динозавров: Совершенные убийцы в 3Д
    Планета динозавров: Совершенные убийцы в 3Д скачать торрент
    Планета динозавров: Совершенные убийцы в 3Д смотреть онлайн
    Cкачать фильм Планета динозавров: Совершенные убийцы в 3Д бесплатно
    Планета динозавров: Совершенные убийцы в 3Д скачать торрент в хорошем качестве
    Планета динозавров: Совершенные убийцы в 3Д смотреть онлайн бесплатно в хорошем качестве


    Вы не можете начинать темы
    Вы не можете отвечать на сообщения
    Вы не можете редактировать свои сообщения
    Вы не можете удалять свои сообщения
    Вы не можете голосовать в опросах
    Вы не можете прикреплять файлы к сообщениям
    Вы можете скачивать файлы