Ссылка на приватное зеркало нашего сайта всего за 1$. Внимание количество ограничено!!!

2 сезон

iTunes

1 сезон

1

2 сезон

2 сезон

iTunes

1 сезон

RePack

30

Новинка

ВАЖНО

ИГРА 18+

pack

RePack

MK11
pack

Забери бонус

RePack

jed

!!Акция!!

Alien_Rage

RePack

fifa19

RePack

Assassins Creed: Odyssey

RePack

NEED FOR SPEED™ PAYBACK

4 сезон

9 сезон

Бесстыжие 9 сезон

Все сериалы

все сериалы на PB.wtf

RePack

FAR CRY 5
  

Чужие / Ужас из песка / The Dustwalker (Сандра Скиберрас) [2019, Фантастика, драма, BD Remux 1080p] MVO [iTunes] pb.wtf

Чужие через торрент pb.wtf

Размер: 22.06 GB | Добавлен: 5 мес. 11 д. назад | Торрент скачан:12 раз
Скачать  

13-06-2020 12:54 Чужие Скачать торрент  

Чужие | Ужас из песка | The Dustwalker
Год выпуска: 2019
Страна: Австралия
Студия: Three Feet Of Film,, Head Gear Films, Kreo Films FZ
Жанр: Фантастика, драма
Продолжительность: 01:34:51
Перевод: Профессиональный (многоголосый) | iTunes
Субтитры: Английские

Режиссер: Сандра Скиберрас

rating

В ролях: Джолин Андерсон, Стэф Доусон, Талина Навиеде, Гарри Гринвуд, Райан Аллен, Хлоя Браун, Нина Дизли, Сэм Дадли, Руби Дункан, Кассандра Маграт

Описание: Упавший космический корабль приносит паразита, превращающего людей в страшных монстров. Чтобы выжить, сержанту Джо Шарп придётся вступить в альянс с пришельцами...

Качество: BD Remux 1080p
Формат: MKV

Видео: MPEG-4 AVC, 28.9 Mбит/с, 1920x1080, 23.976 кадр/с
Аудио #1: Русский (АС3, 6 ch, 384 Кбит/с, 48.0 KHz) Профессиональный (многоголосый, закадровый) iTunes
Аудио #2: Английский (АС3, 6 ch, 640 Кбит/с, 48.0 KHz)
Аудио #3: Английский (DTS-HD MA, 6 ch, 3360 Кбит/с, 48.0 KHz)
скриншот  скриншот  скриншот  скриншот  скриншот  

Источник: The.Dustwalker.2019.1080p.BluRay.AVC.DTS-HD.MA.5.1
General
Unique ID: 193523656310453340569020614437186415032 (0x91974CEB2E0E64D8AEAF97D43C81A9B8)
Complete name: The.Dustwalker.2019.BluRay.Remux.1080p.mkv
Format: Matroska
Format version: Version 4
File size: 22.1 GiB
Duration: 1 h 34 min
Overall bit rate mode: Variable
Overall bit rate: 33.3 Mb/s
Encoded date: UTC 2020-06-13 10:26:10
Writing application: mkvmerge v7.1.0 ('Good Love') 64bit built on Jul 27 2014 13:06:55
Writing library: libebml v1.3.0 + libmatroska v1.4.1

Video
ID: 1
Format: AVC
Format/Info: Advanced Video Codec
Format profile: High@L4.1
Format settings: CABAC / 4 Ref Frames
Format settings, CABAC: Yes
Format settings, Reference fra: 4 frames
Codec ID: V_MPEG4/ISO/AVC
Duration: 1 h 34 min
Bit rate mode: Variable
Bit rate: 28.9 Mb/s
Maximum bit rate: 35.0 Mb/s
Width: 1 920 pixels
Height: 1 080 pixels
Display aspect ratio: 16:9
Frame rate mode: Constant
Frame rate: 23.976 (24000/1001) FPS
Color space: YUV
Chroma subsampling: 4:2:0
Bit depth: 8 bits
Scan type: Progressive
Bits/(Pixel*Frame): 0.581
Stream size: 19.1 GiB (87%)
Language: English
Default: Yes
Forced: No
Color range: Limited
Color primaries: BT.709
Transfer characteristics: BT.709
Matrix coefficients: BT.709

Audio #1
ID: 2
Format: AC-3
Format/Info: Audio Coding 3
Commercial name: Dolby Digital
Codec ID: A_AC3
Duration: 1 h 34 min
Bit rate mode: Constant
Bit rate: 384 kb/s
Channel(s): 6 channels
Channel layout: L R C LFE Ls Rs
Sampling rate: 48.0 kHz
Frame rate: 31.250 FPS (1536 SPF)
Compression mode: Lossy
Stream size: 261 MiB (1%)
Language: Russian
Service kind: Complete Main
Default: Yes
Forced: No

Audio #2
ID: 3
Format: AC-3
Format/Info: Audio Coding 3
Commercial name: Dolby Digital
Codec ID: A_AC3
Duration: 1 h 34 min
Bit rate mode: Constant
Bit rate: 640 kb/s
Channel(s): 6 channels
Channel layout: L R C LFE Ls Rs
Sampling rate: 48.0 kHz
Frame rate: 31.250 FPS (1536 SPF)
Compression mode: Lossy
Stream size: 434 MiB (2%)
Language: English
Service kind: Complete Main
Default: No
Forced: No

Audio #3
ID: 4
Format: DTS XLL
Format/Info: Digital Theater Systems
Commercial name: DTS-HD Master Audio
Codec ID: A_DTS
Duration: 1 h 34 min
Bit rate mode: Variable
Bit rate: 3 361 kb/s
Channel(s): 6 channels
Channel layout: C L R Ls Rs LFE
Sampling rate: 48.0 kHz
Frame rate: 93.750 FPS (512 SPF)
Bit depth: 24 bits
Compression mode: Lossless
Stream size: 2.23 GiB (10%)
Language: English
Default: No
Forced: No

Text #1
ID: 5
Format: UTF-8
Codec ID: S_TEXT/UTF8
Codec ID/Info: UTF-8 Plain Text
Duration: 1 h 31 min
Bit rate: 37 b/s
Count of elements: 854
Stream size: 25.3 KiB (0%)
Language: English
Default: No
Forced: No

Text #2
ID: 6
Format: PGS
Muxing mode: zlib
Codec ID: S_HDMV/PGS
Codec ID/Info: Picture based subtitle format used on BDs/HD-DVDs
Duration: 1 h 31 min
Bit rate: 9 794 b/s
Count of elements: 1746
Stream size: 6.44 MiB (0%)
Language: English
Default: No
Forced: No

Menu
00:00:00.000: en:Chapter 1
00:10:24.624: en:Chapter 2
00:20:10.876: en:Chapter 3
00:29:58.129: en:Chapter 4
00:40:25.047: en:Chapter 5
00:50:23.687: en:Chapter 6
01:00:44.015: en:Chapter 7
01:10:18.547: en:Chapter 8
01:20:43.964: en:Chapter 9
01:31:03.791: en:Chapter 10

pb.wtf



Скачать Чужие через торрент https://i5.imageban.ru/out/2020/06/12/1529aff31c1583a91d15eb5c54280339.png Скачать фильм Чужие через торрент бесплантно в хорошем качестве Описание: Упавший космический корабль приносит паразита, превращающего людей в страшных монстров. Чтобы выжить, сержанту Джо Шарп придётся ... 7.6 10 5
Торрент: Зарегистрирован [2020-06-13 12:54] · скачан: 12 раз
Статус: √ проверено
Размер: 22.06 GB
Как cкачать? Как скачать Чужие через торрент | qTorrent

% Раздел Тема Автор DL S | L
Фильмы [HD 720p, 1080p] (Хороший звук DUB, MVO) [ 10.58 GB ] Чужие / Ужас из песка / The Dustwalker [2019 BDRip 1080p] MVO bober100 Скачать
3 | 0
Фильмы 2019-2020 [DVDrip, WEB-DLRip, HDrip] (DUB, MVO) [ 1.46 GB ] Чужие / Ужас из песка / The Dustwalker [2019 BDRip] MVO bober100 Скачать
5 | 0

28-11-2019 20:33  

Отключить всю рекламу на сайте

    Дорогой пользователь! Огромная просьба, поблагодарите релизера, оцените раздачу и оставьте свои комментарий, если Вы скачали Чужие через торрент бесплатно! Внесите свою лепту в развитие PiratBit!
    Комментировать посты могут только пользователи прошедшие не сложную регистрацию
    Показать сообщения:    

    Чужие через торрент
    Скачать бесплатно Чужие
    Чужие скачать торрент
    Чужие смотреть онлайн
    Cкачать фильм Чужие бесплатно
    Чужие скачать торрент в хорошем качестве
    Чужие смотреть онлайн бесплатно в хорошем качестве


    Вы не можете начинать темы
    Вы не можете отвечать на сообщения
    Вы не можете редактировать свои сообщения
    Вы не можете удалять свои сообщения
    Вы не можете голосовать в опросах
    Вы не можете прикреплять файлы к сообщениям
    Вы можете скачивать файлы