Ссылка на приватное зеркало нашего сайта всего за 1$. Внимание количество ограничено!!!

2 сезон

iTunes

1 сезон

1

iTunes

iTunes

iTunes

1 сезон

RePack

30

ИГРА 18+

pack

ВАЖНО

!!Акция!!

Alien_RageХит недели

RePack

MK11
pack

Забери бонус

RePack

jed

!!Акция!!

Alien_Rage

RePack

fifa19

RePack

Assassins Creed: Odyssey

RePack

NEED FOR SPEED™ PAYBACK

4 сезон

9 сезон

Бесстыжие 9 сезон

Все сериалы

все сериалы на PB.wtf

RePack

FAR CRY 5
  

Шоу про любовь / Серии: 1-2 из 2 (Станислав Назиров) [2020, Мелодрама, SATRip] pb.wtf

Шоу про любовь через торрент pb.wtf

Размер: 2.39 GB | Добавлен: 4 мес. 13 д. назад | Торрент скачан:24 раза
Скачать  

13-06-2020 13:30 Шоу про любовь Скачать торрент  

Шоу про любовь
Год выпуска: 2020
Страна: Россия
Производство: Производство ООО «Кинокомпания Русское», НАО «Студия ЛИРА»
Жанр: Мелодрама
Продолжительность: ~ 01:30:00
Субтитры: отсутствуют

Режиссер: Станислав Назиров



В ролях: Галина Безрук, Дмитрий Ермак, Константин Крюков, Александра Богданова, Алексей Барабаш, Дарья Иванова, Валентина Муравская, Евгений Пилипенко, Вилен Бабичев, Илья Фоменко

Описание: В обычной русской провинции, среди простых людей живёт скромная женщина Люба Кудряшова. Её жизнь состоит из таких же печалей и радостей, как жизнь основной части населения. Но всё меняется, когда в одном из интервью известный актёр упоминает её, как свою первую любовь. Её скромная персона тут же становится объектом всеобщего интереса. А её приезд в столицу для участия в шоу сталкивает два совершенно разных, не понимающих друг друга мира - гламура, рейтингов, пиара любой ценой и простых человеческих радостей, искренних эмоций и истинных ценностей. Любе предстоит узнать правду и сделать выбор – сбежать домой, к родным берёзкам, подальше от этого балагана, или усвоить урок и начать собственную игру, решив заодно проблему родного городка.

Качество: SATRip
Формат: AVI

Видео: XviD, 720x400, ~ 1700 Кбит/с, 0.236 bit/pixel, 25 кадр/с
Аудио: МР3, 48,0 КГц, 2 ch, 192 Кбит/с
скриншот  скриншот  скриншот  скриншот  скриншот  

Общее
Полное имя : D:\Шоу.Про.Любовь.XviD.2020.SATRip.7turza™\01.Шоу.Про.Любовь.7turza™.avi
Формат : AVI
Формат/Информация : Audio Video Interleave
Профиль формата : OpenDML
Размер файла : 1,17 Гбайт
Продолжительность : 1 ч. 28 м.
Общий поток : 1905 Кбит/сек
Название фильма : S01 E01 # from 7turza #
Программа кодирования : Lavf58.29.100

Видео
Идентификатор : 0
Формат : MPEG-4 Visual
Профиль формата : Advanced Simple@L5
Настройки формата : BVOP1
Параметр BVOP формата : 1
Параметр QPel формата : Нет
Параметр GMC формата : Без точки перехода
Параметр матрицы формата : Default (H.263)
Идентификатор кодека : XVID
Идентификатор кодека/Подсказка : XviD
Продолжительность : 1 ч. 28 м.
Битрейт : 1697 Кбит/сек
Ширина : 720 пикселей
Высота : 400 пикселей
Соотношение сторон : 16:9
Частота кадров : 25,000 кадров/сек
Цветовое пространство : YUV
Субдискретизация насыщенности : 4:2:0
Битовая глубина : 8 бит
Тип развёртки : Прогрессивная
Метод сжатия : С потерями
Бит/(Пиксели*Кадры) : 0.236
Размер потока : 1,04 Гбайт (89%)
Библиотека кодирования : XviD 67

Аудио
Идентификатор : 1
Формат : MPEG Audio
Версия формата : Version 1
Профиль формата : Layer 3
Настройки формата : Joint stereo
Идентификатор кодека : 55
Идентификатор кодека/Подсказка : MP3
Продолжительность : 1 ч. 28 м.
Вид битрейта : Постоянный
Битрейт : 192 Кбит/сек
Каналы : 2 канала
Частота : 48,0 КГц
Метод сжатия : С потерями
Размер потока : 121 Мбайт (10%)
Выравнивание : Соединение по промежуткам
Продолжительность промежутка : 24 мс. (0,60 видеокадр)
Библиотека кодирования : LAME3.10pÙt©4|ïf

pb.wtf



Скачать Шоу про любовь через торрент https://c.radikal.ru/c02/2006/ad/72a0444fd8e5.jpg Скачать фильм Шоу про любовь через торрент бесплантно в хорошем качестве Описание: В обычной русской провинции, среди простых людей живёт скромная женщина Люба Кудряшова. Её жизнь состоит из таких же печалей и ... 10 10 3
Торрент: Зарегистрирован [2020-06-13 13:30] · скачан: 24 раз
Статус: √ проверено
Размер: 2.39 GB
Как cкачать? Как скачать Шоу про любовь через торрент | qTorrent

% Раздел Тема Автор DL S | L
Наши сериалы [ 4.64 GB ] Шоу про любовь / Серии: 1-2 из 2 [2020 Мело HDTVRip 720p] bober100 Скачать
1 | 0
Наши сериалы [ 2.26 GB ] Шоу про любовь / Серии: 1-2 из 2 [2020 Мело HDTVRip] bober100 Скачать
1 | 0
Наши сериалы [ 2.76 GB ] Шоу про любовь / Серии: 1-2 из 2 [2020 Мело HDTVRip-AVC] bober100 Скачать
2 | 0
Наши сериалы [ 9.62 GB ] Шоу про любовь / Серии: 1-2 из 2 [2020 Мело HDTV 1080i] bober100 Скачать
1 | 0

28-11-2019 20:33  

Отключить всю рекламу на сайте

    Дорогой пользователь! Огромная просьба, поблагодарите релизера, оцените раздачу и оставьте свои комментарий, если Вы скачали Шоу про любовь через торрент бесплатно! Внесите свою лепту в развитие PiratBit!
    Комментировать посты могут только пользователи прошедшие не сложную регистрацию
    Показать сообщения:    

    Шоу про любовь через торрент
    Скачать бесплатно Шоу про любовь
    Шоу про любовь скачать торрент
    Шоу про любовь смотреть онлайн
    Cкачать фильм Шоу про любовь бесплатно
    Шоу про любовь скачать торрент в хорошем качестве
    Шоу про любовь смотреть онлайн бесплатно в хорошем качестве


    Вы не можете начинать темы
    Вы не можете отвечать на сообщения
    Вы не можете редактировать свои сообщения
    Вы не можете удалять свои сообщения
    Вы не можете голосовать в опросах
    Вы не можете прикреплять файлы к сообщениям
    Вы можете скачивать файлы