Ссылка на приватное зеркало нашего сайта всего за 1$. Внимание количество ограничено!!!

2 сезон

iTunes

1 сезон

1

iTunes

iTunes

iTunes

1 сезон

RePack

30

ИГРА 18+

pack

ВАЖНО

!!Акция!!

Alien_RageХит недели

RePack

MK11
pack

Забери бонус

RePack

jed

!!Акция!!

Alien_Rage

RePack

fifa19

RePack

Assassins Creed: Odyssey

RePack

NEED FOR SPEED™ PAYBACK

4 сезон

9 сезон

Бесстыжие 9 сезон

Все сериалы

все сериалы на PB.wtf

RePack

FAR CRY 5
  

Шоу про любовь / Серии: 1-4 из 4 (Станислав Назиров) [2020, мелодрама, SATRip-AVC] pb.wtf

Шоу про любовь через торрент pb.wtf

Размер: 2.13 GB | Добавлен: 4 мес. 6 д. назад | Торрент скачан:14 раз
Скачать  

13-06-2020 20:40 Шоу про любовь Скачать торрент  

Шоу про любовь
Год выпуска: 2020
Страна: Россия | Русское
Жанр: мелодрама
Продолжительность: 00:43:00
Субтитры: нет
Режиссёр:Станислав Назиров

В ролях:Галина Безрук, Дмитрий Ермак, Константин Крюков, Александра Богданова, Алексей Барабаш, Дарья Иванова, Валентина Муравская
Описание:
В обычной русской провинции, среди простых людей живёт скромная женщина Люба Кудряшова. Её жизнь состоит из таких же печалей и радостей, как жизнь основной части населения. Но всё меняется, когда в одном из интервью известный актёр упоминает её, как свою первую любовь. Её скромная персона тут же становится объектом всеобщего интереса.

Качество: SATRip-AVC
Формат: MKV
Видео кодек: H.264
Аудио кодек: AC3
Видео: MPEG4 Video (H264), 720х400, 25fps,1500 Kbps,bit/pixel 0.208
Аудио : AC3 48000Hz, stereo, 192 kbps,2 ch
Общее
Уникальный идентификатор : 243207805954124294241126585172072674021 (0xB6F81E9F637A6CD181E529DD241D32E5)
Полное имя : G:\Шоу про любовь\01 серия_Шоу про любовь_rip by_Aleksan55.mkv
Формат : Matroska
Версия формата : Version 2
Размер файла : 524 Мбайт
Продолжительность : 43 м. 17 с.
Общий поток : 1694 Кбит/сек
Дата кодирования : UTC 2020-06-13 18:14:36
Программа кодирования : mkvmerge v7.8.0 ('River Man') 32bit built on Apr 3 2015 12:11:22
Библиотека кодирования : libebml v1.3.1 + libmatroska v1.4.2

Видео
Идентификатор : 1
Формат : AVC
Формат/Информация : Advanced Video Codec
Профиль формата : High@L4.1
Настройки формата : CABAC / 12 Ref Frames
Параметр CABAC формата : Да
Параметр RefFrames формата : 12 кадров
Идентификатор кодека : V_MPEG4/ISO/AVC
Продолжительность : 43 м. 17 с.
Битрейт : 1500 Кбит/сек
Ширина : 720 пикселей
Высота : 400 пикселей
Соотношение сторон : 16:9
Режим частоты кадров : Постоянный
Частота кадров : 25,000 кадров/сек
Цветовое пространство : YUV
Субдискретизация насыщенности : 4:2:0
Битовая глубина : 8 бит
Тип развёртки : Прогрессивная
Бит/(Пиксели*Кадры) : 0.208
Размер потока : 455 Мбайт (87%)
Библиотека кодирования : x264 core 146 r2538 121396c
Настройки программы : cabac=1 / ref=12 / deblock=1:-2:-2 / analyse=0x3:0x133 / me=umh / subme=9 / psy=1 / psy_rd=1.00:0.15 / mixed_ref=0 / me_range=24 / chroma_me=1 / trellis=2 / 8x8dct=1 / cqm=0 / deadzone=21,11 / fast_pskip=0 / chroma_qp_offset=-3 / threads=10 / lookahead_threads=5 / sliced_threads=0 / nr=0 / decimate=0 / interlaced=0 / bluray_compat=0 / constrained_intra=0 / bframes=12 / b_pyramid=2 / b_adapt=2 / b_bias=0 / direct=3 / weightb=1 / open_gop=0 / weightp=2 / keyint=250 / keyint_min=25 / scenecut=40 / intra_refresh=0 / rc_lookahead=40 / rc=2pass / mbtree=1 / bitrate=1500 / ratetol=1.0 / qcomp=0.60 / qpmin=0 / qpmax=60 / qpstep=4 / cplxblur=20.0 / qblur=0.5 / ip_ratio=1.40 / aq=1:1.00
Default : Да
Forced : Нет
Цветовой диапазон : Limited
Основные цвета : BT.601 PAL
Характеристики трансфера : BT.470 System B/G
Коэффициенты матрицы : BT.470 System B/G

Аудио
Идентификатор : 2
Формат : AC-3
Формат/Информация : Audio Coding 3
Коммерческое название : Dolby Digital
Идентификатор кодека : A_AC3
Продолжительность : 43 м. 17 с.
Вид битрейта : Постоянный
Битрейт : 192 Кбит/сек
Каналы : 2 канала
ChannelLayout : L R
Частота : 48,0 КГц
Частота кадров : 31,250 кадров/сек (1536 SPF)
Метод сжатия : С потерями
Размер потока : 59,5 Мбайт (11%)
Default : Да
Forced : Нет
pb.wtf



Скачать Шоу про любовь через торрент https://i112.fastpic.ru/big/2020/0613/05/f8c2454049fa28b7549bf2a2c90bdc05.jpg Скачать фильм Шоу про любовь через торрент бесплантно в хорошем качестве Описание:В обычной русской провинции, среди простых людей живёт скромная женщина Люба Кудряшова. Её жизнь состоит из таких же печалей и ... 5 10 1
Торрент: Зарегистрирован [2020-06-13 20:40] · скачан: 14 раз
Статус: √ проверено
Размер: 2.13 GB
Как cкачать? Как скачать Шоу про любовь через торрент | qTorrent

28-11-2019 20:33  

Отключить всю рекламу на сайте

    Дорогой пользователь! Огромная просьба, поблагодарите релизера, оцените раздачу и оставьте свои комментарий, если Вы скачали Шоу про любовь через торрент бесплатно! Внесите свою лепту в развитие PiratBit!
    Комментировать посты могут только пользователи прошедшие не сложную регистрацию
    Показать сообщения:    

    Шоу про любовь через торрент
    Скачать бесплатно Шоу про любовь
    Шоу про любовь скачать торрент
    Шоу про любовь смотреть онлайн
    Cкачать фильм Шоу про любовь бесплатно
    Шоу про любовь скачать торрент в хорошем качестве
    Шоу про любовь смотреть онлайн бесплатно в хорошем качестве


    Вы не можете начинать темы
    Вы не можете отвечать на сообщения
    Вы не можете редактировать свои сообщения
    Вы не можете удалять свои сообщения
    Вы не можете голосовать в опросах
    Вы не можете прикреплять файлы к сообщениям
    Вы можете скачивать файлы