2 сезон

iTunes

MVO

1

2 сезон

iTunes

1 сезон

1 сезон

RePack

30

Новинка

ВАЖНО

ИГРА 18+

pack

RePack

MK11
pack

Легкие деньги

RePack

jed

RePack

fifa19

RePack

RDR2

RePack

NEED FOR SPEED™ PAYBACK

4 сезон

9 сезон

Бесстыжие 9 сезон

Все сериалы

все сериалы на PB.wtf

RePack

FAR CRY 5

Anonymous, добрый вечер, мы не успеваем собрать деньги на оплату серверов за декабрь и январь, помогите нам пожалуйста в это трудное время. В качестве благодарности мы отключим Вам всю рекламу на сайте (укажите свой ник в строку Ваше имя)!

×
  
Magnet ссылка

Бегущий человек / The Running Man (Пол Майкл Глэйзер /Paul Michael Glaser) [1987 г., фантастика, боевик, триллер, криминал, BDRip 720p / 60 FPS] DVO [R5] pb.wtf

Бегущий человек через торрент pb.wtf

Раздают: 1 [ 0 KB/s ]
Размер: 3.12 GB | Добавлен: 7 мес. назад | Торрент скачан:49 раз
Скачать  

14-06-2020 01:21 Бегущий человек Скачать торрент  

Бегущий человек / The Running Man
Год выпуска: 1987
Страна: США
Жанр: фантастика, боевик, триллер, криминал
Продолжительность: 01:40:43
Перевод: Профессиональный (двухголосый закадровый), R5 [rus]
Субтитры: русские, английские

Режиссер: Пол Майкл Глэйзер /Paul Michael Glaser/

rating

В ролях: Арнольд Шварценеггер /Arnold Schwarzenegger/, Мария Кончита Алонсо /Maria Conchita Alonso/, Яфет Котто /Yaphet Kotto/, Джим Браун /Jim Brown/, Ричард Доусон /Richard Dawson/, Джесси Вентура /Jesse Ventura/...

Описание: К 2017 году излюбленным развлечением для жителей Америки, превратившейся в полувоенное государство, стало садистское телешоу «Бегущий человек», участники которого — невинные жертвы — не имели ни единого шанса на выживание.
Среди них оказался полицейский Бэн Ричардс (Арнольд Шварценеггер), отказавшийся расстрелять безоружную толпу голодных людей. Теперь вместе с собратьями по несчастью ему предстоит принять участие в безумной гонке со смертью, сразиться с непобедимыми монстрами — Профессором Крио, Бензопилой, Шаровой Молнией и Динамо, и отомстить бесчеловечному хозяину шоу.

Качество: BDRip 720p / 60 FPS
Формат: MKV
Видео кодек: H.264
Аудио кодек: AC3
Видео: x264, 1280 x 720 ( 16:9 ), 4000 kbps,59,940 fps, ( 0.072 bpp)
Аудио#1: Русский, AC-3 5.1, 48.0 KHz, 6 ch, 448 Kbps DVO, R5 [rus]
скриншот   скриншот   скриншот   скриншот   скриншот  

Общее
Уникальный идентификатор : 211624340566946107856879392322583563082 (0x9F355D8DDCF10685B9FD8F87230C8B4A)
Полное имя : Z:\На заливку\Бегущий Человек.1987.BDRip.720p.(60Fps).mkv
Формат : Matroska
Версия формата : Version 4
Размер файла : 3,12 Гбайт
Продолжительность : 1 ч. 40 м.
Общий поток : 4 442 Кбит/сек
Название фильма : Бегущий Человек.1987.BDRip.720p.(60Fps)
Дата кодирования : UTC 2020-05-31 18:48:48
Программа кодирования : mkvmerge v7.2.0 ('On Every Street') 64bit built on Sep 13 2014 15:52:10
Библиотека кодирования : libebml v1.3.0 + libmatroska v1.4.1

Видео
Идентификатор : 1
Формат : AVC
Формат/Информация : Advanced Video Codec
Профиль формата : High@L4.1
Настройки формата : CABAC / 8 Ref Frames
Параметр CABAC формата : Да
Параметр RefFrames формата : 8 кадров
Идентификатор кодека : V_MPEG4/ISO/AVC
Продолжительность : 1 ч. 40 м.
Битрейт : 4 000 Кбит/сек
Ширина : 1 280 пикселей
Высота : 720 пикселей
Соотношение сторон : 16:9
Режим частоты кадров : Постоянный
Частота кадров : 59,940 кадров/сек
Цветовое пространство : YUV
Субдискретизация насыщенности : 4:2:0
Битовая глубина : 8 бит
Тип развёртки : Прогрессивная
Бит/(Пиксели*Кадры) : 0.072
Размер потока : 2,81 Гбайт (90%)
Библиотека кодирования : x264 core 148 r2638 7599210
Настройки программы : cabac=1 / ref=8 / deblock=1:0:0 / analyse=0x3:0x113 / me=umh / subme=9 / psy=1 / psy_rd=1.00:0.10 / mixed_ref=1 / me_range=32 / chroma_me=1 / trellis=2 / 8x8dct=1 / cqm=0 / deadzone=21,11 / fast_pskip=0 / chroma_qp_offset=-3 / threads=6 / lookahead_threads=1 / sliced_threads=0 / nr=0 / decimate=1 / interlaced=0 / bluray_compat=0 / constrained_intra=0 / bframes=16 / b_pyramid=2 / b_adapt=2 / b_bias=0 / direct=3 / weightb=1 / open_gop=0 / weightp=2 / keyint=250 / keyint_min=25 / scenecut=40 / intra_refresh=0 / rc_lookahead=40 / rc=2pass / mbtree=1 / bitrate=4000 / ratetol=1.0 / qcomp=0.60 / qpmin=0 / qpmax=69 / qpstep=4 / cplxblur=20.0 / qblur=0.5 / vbv_maxrate=14000 / vbv_bufsize=14000 / nal_hrd=none / filler=0 / ip_ratio=1.40 / aq=1:1.00
Язык : English
Default : Да
Forced : Нет

Аудио
Идентификатор : 2
Формат : AC-3
Формат/Информация : Audio Coding 3
Коммерческое название : Dolby Digital
Идентификатор кодека : A_AC3
Продолжительность : 1 ч. 40 м.
Вид битрейта : Постоянный
Битрейт : 448 Кбит/сек
Каналы : 6 каналов
Channel layout : L R C LFE Ls Rs
Частота : 48,0 КГц
Частота кадров : 31,250 кадров/сек (1536 SPF)
Метод сжатия : С потерями
Размер потока : 323 Мбайт (10%)
Заголовок : AC3 5.1 @ 448 kbps - Двухголосый закадровый, R5
Язык : Russian
Service kind : Complete Main
Default : Нет
Forced : Нет

Текст #1
Идентификатор : 3
Формат : UTF-8
Идентификатор кодека : S_TEXT/UTF8
Идентификатор кодека/Информация : UTF-8 Plain Text
Продолжительность : 1 ч. 32 м.
Битрейт : 98 бит/сек
Count of elements : 1093
Размер потока : 67,0 Кбайт (0%)
Язык : Russian
Default : Нет
Forced : Нет

Текст #2
Идентификатор : 4
Формат : UTF-8
Идентификатор кодека : S_TEXT/UTF8
Идентификатор кодека/Информация : UTF-8 Plain Text
Продолжительность : 1 ч. 38 м.
Битрейт : 53 бит/сек
Count of elements : 1025
Размер потока : 38,1 Кбайт (0%)
Язык : English
Default : Нет
Forced : Нет

Текст #3
Идентификатор : 5
Формат : UTF-8
Идентификатор кодека : S_TEXT/UTF8
Идентификатор кодека/Информация : UTF-8 Plain Text
Продолжительность : 1 ч. 38 м.
Битрейт : 56 бит/сек
Count of elements : 1152
Размер потока : 40,7 Кбайт (0%)
Заголовок : SDH
Язык : English
Default : Нет
Forced : Нет

pb.wtf



Скачать Бегущий человек через торрент https://pic1.kartinco.top/images/12/f51h2.jpg Скачать фильм Бегущий человек через торрент бесплантно в хорошем качестве Описание: К 2017 году излюбленным развлечением для жителей Америки, превратившейся в полувоенное государство, стало садистское телешоу ... 10 10 3
Торрент: Зарегистрирован [2020-06-14 01:21] · скачан: 49 раз
Статус: √ проверено
Размер: 3.12 GB
Как cкачать? Как скачать Бегущий человек через торрент | UTorrent

% Раздел Тема Автор DL S | L
Классика зарубежного кино [ 10.78 GB ] Бегущий человек / The Running Man [1963 BDRip 1080p by msltel] DUB MVO msltel Скачать
1 | 0
Классика зарубежного кино [ 4.09 GB ] Бегущий человек / The Running Man [1963 BDRip 720p by msltel] DUB MVO msltel Скачать
1 | 0
Классика зарубежного кино [ 2.61 GB ] Бегущий человек / The Running Man [1963 BDRip by msltel] DUB MVO msltel Скачать
1 | 0
Фильмы [HD 720p, 1080p] (Хороший звук DUB, MVO) [ 14.59 GB ] Бегущий человек / The Running Man [1987 BDRip 1080p] 2xMVO 2xDVO 2xAVO Леонид Ильич Скачать
1 | 0
Фильмы [HD 720p, 1080p] (Хороший звук DUB, MVO) [ 5.61 GB ] Бегущий человек / The Running Man [1987 BDRip 1080p HEVC ] Мичман37 Скачать
1 | 0
Фильмы [HD 720p, 1080p] (Хороший звук DUB, MVO) [ 9.18 GB ] Бегущий человек / Running Man The [1987 BDRip 1080p от HQ-ViDEO] MVO Ворон Скачать
1 | 0
Фильмы до 2000 г. [ 1.8 GB ] Бегущий человек / The Running Man [1987 BDRip] 2x[AVO] killermax2013 Скачать
1 | 0

28-11-2019 20:33  

Отключить всю рекламу на сайте


    Дорогой пользователь! Огромная просьба, поблагодарите релизера, оцените раздачу и оставьте свои комментарий, если Вы скачали Бегущий человек через торрент бесплатно! Внесите свою лепту в развитие PiratBit!
    Комментировать посты могут только пользователи прошедшие не сложную регистрацию
    Показать сообщения:    

    Бегущий человек через торрент
    Скачать бесплатно Бегущий человек
    Бегущий человек скачать торрент
    Бегущий человек смотреть онлайн
    Cкачать фильм Бегущий человек бесплатно
    Бегущий человек скачать торрент в хорошем качестве
    Бегущий человек смотреть онлайн бесплатно в хорошем качестве


    Вы не можете начинать темы
    Вы не можете отвечать на сообщения
    Вы не можете редактировать свои сообщения
    Вы не можете удалять свои сообщения
    Вы не можете голосовать в опросах
    Вы не можете прикреплять файлы к сообщениям
    Вы можете скачивать файлы