Достать ножи: Стеклянная луковица

MVO

Добыча

Дубляж

Уэнсдэй

1 сезон

Тор

Дубляж

13 клиническая

1 сезон

Жестокая ночь

MVO

Одни из нас

1 сезон

Deluxe

pack

Рекомендуем

30

Пиратка

ВАЖНО

ВАЖНО

Ghostwire

Пиратка

jed

RePack

nioh2

RePack

RDR2

RePack

NEED FOR SPEED™ PAYBACK

RePack

скачать торрент

Кинопоиск HD

Острые козырьки 6 сезон

6 сезон

FAR CRY 6

RePack

скачать торрент

Лицензия

скачать торрент

MVO

1

1 сезон

скачать торрент

1 сезон

скачать торрент

Лицензия

  

15 минут славы / 15 Minutes (Джон Херцфелд) [2001, Боевик, триллер, драма, криминал, BDRip 720p / 60 FPS, Дубляж, [Мосфильм-Мастер]]

15 минут славы через торрент pb.wtf

Раздают: 3 [ 0 KB/s ]
Размер: 2.86 GB | Добавлен: 3 д. назад | Торрент скачан:17 раз
Смотреть онлайн | Скачать | Поддержите нас   

14-06-2020 03:59 15 минут славы Скачать торрент  

15 минут славы / 15 Minutes
Год выпуска: 2001
Страна: США, Германия, Industry Entertainment, Katira Media Production
Жанр: Боевик, триллер, драма, криминал
Продолжительность: 02:00:43
Перевод: Дубляж [Мосфильм-Мастер]
Субтитры: русские, английские,украинские

Режиссер: Джон Херцфелд

rating

В ролях: Роберт Де Ниро, Эдвард Бёрнс, Келси Грэммер, Эйвери Брукс, Мелина Канакаредес, Карел Роден, Олег Тактаров, Вера Фармига, Джон ДиРеста, Джеймс Хэнди, Дариус МакКрэри, Брюс Катлер, Шарлиз Терон, Ким Кэтролл, Дэвид Алан Грайр, Владимир Машков, Ирина Гасанова, Ноэль Эванс, Мелинда Марин, Кристина Клейборн, Пол Херман, Гэбриел Коссес, Джо Лиси, Стивен Дэвис, Уильям Стэнтон, Луис Ф. Гарсиа, Майк Камелло, Тай Рунян, Барри Блайн, Ричи Костер, Розанна, Бобби Филд, Антон Ельчин, Себастьян Роше

Описание: Эмиль и Олег, приехав в Нью-Йорк по своим бандитским делам, воруют видеокамеру, и начинают снимать свои криминальные похождения. Очень скоро они переходят от незначительных преступлений к поражающим своей жестокостью убийствам. Желая продемонстрировать свои «подвиги» наибольшему количеству зрителей, они продают видеозаписи на телевидение. Передача, которая решилась пустить это в эфир, моментально становится самой высоко рейтинговой, а наши герои новыми звездами экрана. Но полицейские тоже смотрят телевизор, и тоже не прочь прославиться на всю Америку, пристрелив убийц в прямом эфире...

Качество: BDRip 720p / 60 FPS
Формат: MKV
Видео кодек: H.264
Аудио кодек: AC3
Видео: x264, 1280 x 544 ( 2,35:1 ), 4000 kbps, 59,940 fps, ( 0.096 bpp)
Аудио#1: Русский, AC-3, 48.0 KHz, 2 ch, 192 Kbps
скриншот   скриншот   скриншот   скриншот  

Общее
Уникальный идентификатор : 219830271730031603753620500652983708554 (0xA561C5326E5210979D98C41AFB01EB8A)
Полное имя : Z:\На заливку\15 Минут Славы.2001.BDRip.720p.(60Fps).mkv
Формат : Matroska
Версия формата : Version 4
Размер файла : 3,53 Гбайт
Продолжительность : 2 ч. 0 м.
Общий поток : 4 190 Кбит/сек
Название фильма : 15 Минут Славы.2001.BDRip.720p.(60Fps)
Дата кодирования : UTC 2020-05-26 18:04:56
Программа кодирования : mkvmerge v7.2.0 ('On Every Street') 64bit built on Sep 13 2014 15:52:10
Библиотека кодирования : libebml v1.3.0 + libmatroska v1.4.1

Видео
Идентификатор : 1
Формат : AVC
Формат/Информация : Advanced Video Codec
Профиль формата : [email protected]
Настройки формата : CABAC / 8 Ref Frames
Параметр CABAC формата : Да
Параметр RefFrames формата : 8 кадров
Идентификатор кодека : V_MPEG4/ISO/AVC
Продолжительность : 2 ч. 0 м.
Битрейт : 4 000 Кбит/сек
Ширина : 1 280 пикселей
Высота : 544 пикселя
Соотношение сторон : 2,35:1
Режим частоты кадров : Постоянный
Частота кадров : 59,940 кадров/сек
Цветовое пространство : YUV
Субдискретизация насыщенности : 4:2:0
Битовая глубина : 8 бит
Тип развёртки : Прогрессивная
Бит/(Пиксели*Кадры) : 0.096
Размер потока : 3,37 Гбайт (95%)
Библиотека кодирования : x264 core 146 r2538 121396c
Настройки программы : cabac=1 / ref=8 / deblock=1:0:0 / analyse=0x3:0x113 / me=umh / subme=9 / psy=1 / psy_rd=1.00:0.10 / mixed_ref=1 / me_range=32 / chroma_me=1 / trellis=2 / 8x8dct=1 / cqm=0 / deadzone=21,11 / fast_pskip=0 / chroma_qp_offset=-3 / threads=6 / lookahead_threads=1 / sliced_threads=0 / nr=0 / decimate=1 / interlaced=0 / bluray_compat=0 / constrained_intra=0 / bframes=16 / b_pyramid=2 / b_adapt=2 / b_bias=0 / direct=3 / weightb=1 / open_gop=0 / weightp=2 / keyint=250 / keyint_min=25 / scenecut=40 / intra_refresh=0 / rc_lookahead=40 / rc=2pass / mbtree=0 / bitrate=4000 / ratetol=1.0 / qcomp=0.60 / qpmin=0 / qpmax=69 / qpstep=4 / cplxblur=20.0 / qblur=0.5 / vbv_maxrate=14000 / vbv_bufsize=14000 / nal_hrd=none / filler=0 / ip_ratio=1.40 / pb_ratio=1.30 / aq=1:1.00
Язык : English
Default : Да
Forced : Нет

Аудио
Идентификатор : 2
Формат : AC-3
Формат/Информация : Audio Coding 3
Коммерческое название : Dolby Digital
Идентификатор кодека : A_AC3
Продолжительность : 2 ч. 0 м.
Вид битрейта : Постоянный
Битрейт : 192 Кбит/сек
Каналы : 2 канала
Channel layout : L R
Частота : 48,0 КГц
Частота кадров : 31,250 кадров/сек (1536 SPF)
Метод сжатия : С потерями
Размер потока : 166 Мбайт (5%)
Заголовок : Дубляж [Мосфильм-Мастер]
Язык : Russian
Service kind : Complete Main
Default : Да
Forced : Нет

Текст #1
Идентификатор : 3
Формат : UTF-8
Идентификатор кодека : S_TEXT/UTF8
Идентификатор кодека/Информация : UTF-8 Plain Text
Продолжительность : 1 ч. 51 м.
Битрейт : 104 бит/сек
Count of elements : 1354
Размер потока : 85,8 Кбайт (0%)
Заголовок : Full
Язык : Russian
Default : Нет
Forced : Нет

Текст #2
Идентификатор : 4
Формат : UTF-8
Идентификатор кодека : S_TEXT/UTF8
Идентификатор кодека/Информация : UTF-8 Plain Text
Продолжительность : 1 ч. 51 м.
Битрейт : 103 бит/сек
Count of elements : 1354
Размер потока : 84,9 Кбайт (0%)
Заголовок : Full
Язык : Ukrainian
Default : Нет
Forced : Нет

Текст #3
Идентификатор : 5
Формат : UTF-8
Идентификатор кодека : S_TEXT/UTF8
Идентификатор кодека/Информация : UTF-8 Plain Text
Продолжительность : 2 ч. 0 м.
Битрейт : 62 бит/сек
Count of elements : 1519
Размер потока : 55,1 Кбайт (0%)
Заголовок : Full, SDH
Язык : English
Default : Нет
Forced : Нет

Меню
00:00:00.000 : en:Main Titles
00:02:50.920 : en:If It Bleeds...
00:06:59.627 : en:Ride Along
00:09:37.326 : en:The First Scene
00:15:25.799 : en:Accident or Arson?
00:22:22.549 : en:No Responsibility
00:31:57.624 : en:A Closer Look
00:35:57.446 : en:Homicide School
00:39:46.050 : en:Hunting Daphne
00:45:42.906 : en:Hot Pursuit
00:48:46.715 : en:Grilling Daphne
00:52:52.335 : en:Nicolette and Eddie
01:00:21.034 : en:Out on a Limb
01:04:50.845 : en:Emil's Movie
01:14:33.886 : en:Tragedy
01:20:18.188 : en:Fire Trap
01:27:43.132 : en:Special Broadcast
01:33:50.166 : en:Judge and Jury
01:38:01.125 : en:Victims
01:44:19.544 : en:The Final Act
01:52:38.626 : en:End Credits




Скачать 15 минут славы через торрент https://pic1.kartinco.top/images/12/cthrt.jpg Скачать, смотреть онлайн 15 минут славы бесплантно в хорошем качестве Описание: Эмиль и Олег, приехав в Нью-Йорк по своим бандитским делам, воруют видеокамеру, и начинают снимать свои криминальные похождения. ... 10 10 1
Торрент: Зарегистрирован [2023-01-23 10:01] · скачан: 17 раз
Статус: ? недооформлено
Размер: 2.86 GB
Как cкачать? Как скачать 15 минут славы через торрент | UTorrent

% Раздел Тема Автор DL S | L
Фильмы (Blu-ray, BD-Remux, HDDVD) [ 43.41 GB ] 15 минут славы / 15 Minutes | DUB | 1080p от HDClub Ворон Скачать
1 | 0
Фильмы [HD 720p, 1080p] (Хороший звук DUB, MVO) [ 5.76 GB ] 15 минут славы / 15 Minutes | DUB | 720p от _denis_100 / NNNB _denis_100 Скачать
1 | 0
Фильмы [HD 720p, 1080p] (Хороший звук DUB, MVO) [ 10.77 GB ] 15 минут славы / 15 Minutes | DUB | 1080p msltel Скачать
1 | 0
Фильмы 2001-2005 [ 3.26 GB ] 15 минут славы / 15 Minutes | DUB | BDRip AVC msltel Скачать
1 | 0
Фильмы 2001-2005 [ 2.18 GB ] 15 минут славы / 15 Minutes | | BDRip kycher1972 Скачать
1 | 0

28-11-2019 20:33  


Отключить вcю реклaмy на сайте, в т.ч. и в плеере онлайн просмотра!

    Дорогой пользователь! Огромная просьба, поблагодарите релизера, оцените раздачу и оставьте свои комментарий, если Вы скачали 15 минут славы через торрент бесплатно!!
    Комментировать посты могут только пользователи прошедшие не сложную регистрацию
    Показать сообщения:    


    15 минут славы через торрент
    Скачать бесплатно 15 минут славы
    15 минут славы скачать торрент
    15 минут славы смотреть онлайн
    Cкачать фильм 15 минут славы бесплатно
    15 минут славы скачать торрент в хорошем качестве
    15 минут славы смотреть онлайн бесплатно в хорошем качестве
    Вы не можете начинать темы
    Вы не можете отвечать на сообщения
    Вы не можете редактировать свои сообщения
    Вы не можете удалять свои сообщения
    Вы не можете голосовать в опросах
    Вы не можете прикреплять файлы к сообщениям
    Вы можете скачивать файлы
    15 минут славы / 15 Minutes [2001, Боевик, триллер, драма, криминал, BDRip 720p / 60 FPS, Дубляж, [Мосфильм-Мастер]] смотреть онлайн, скачать торрент picoco.icu