Ссылка на приватное зеркало нашего сайта всего за 1$. Внимание количество ограничено!!!

2 сезон

iTunes

1 сезон

1

2 сезон

2 сезон

iTunes

1 сезон

RePack

30

Новинка

ВАЖНО

ИГРА 18+

pack

RePack

MK11
pack

Забери бонус

RePack

jed

!!Акция!!

Alien_Rage

RePack

fifa19

RePack

Assassins Creed: Odyssey

RePack

NEED FOR SPEED™ PAYBACK

4 сезон

9 сезон

Бесстыжие 9 сезон

Все сериалы

все сериалы на PB.wtf

RePack

FAR CRY 5
  

Эксперимент «За стеклом» / Funhouse (Джейсон Уилльям Ли) [2019, Ужасы, WEB-DL 720p] DUB [iTunes] pb.wtf

Эксперимент «За стеклом» через торрент pb.wtf

Раздают: 4 [ 109 KB/s ]
Размер: 3.28 GB | Добавлен: 5 мес. 10 д. назад | Торрент скачан:173 раза
Скачать  

14-06-2020 15:34 Эксперимент «За стеклом» Скачать торрент  

Эксперимент «За стеклом» | Funhouse
Год выпуска: 2019
Страна: Швеция, Канада
Выпущено: Ti Bonny Productions, Sandcastle Pictures, Invention Films
Жанр: Ужасы
Продолжительность: 01:41:55
Перевод: Дублированный | iTunes
Субтитры: отсутствуют

Режиссер: Джейсон Уилльям Ли

rating

В ролях: Вальтер Скарсгард, Гиги Сол Герреро, Каролина Бенефилд, Кристофер Джерард, Хамиса Уилшер, Аманда Хауэллс, Матиас Ретамаль, Джером Велински, Дейли Нельсон, Джефф Купер

Описание: Восемь интернет-знаменитостей участвуют в онлайн-шоу, где зрители решают их судьбу. Скоро становится понятно, что это не обычная игра, а изощренный эксперимент. Таинственный организатор предлагает все более изобретательные и зрелищные, но все более рискованные и опасные для участников испытания. Когда ты «за стеклом», и на тебя смотрит весь мир, как далеко ты зайдешь, чтобы не оказаться внизу рейтинга и сохранить свою жизнь?

Качество: WEB-DL 720p
Формат: MKV

Видео: AVC/H.264, 1280@960x638, ~4036 Кbps, 25 fps
Аудио#1: AC3, 6 ch, 384 Kbps - Русский
Аудио#2: AC3, 2 ch, 192 Kbps - Aнглийский
скриншот  скриншот  скриншот  скриншот  

Общее
Уникальный идентификатор : 285266336044583024198124457552825954242 (0xD69C4C414CA40616A1CB6F45FF262FC2)
Полное имя : Funhouse.2019.WEB-DL.720p.W.mkv
Формат : Matroska
Версия формата : Version 4
Размер файла : 3,28 Гбайт
Продолжительность : 1 ч. 41 м.
Общий поток : 4 614 Кбит/сек
Название фильма : Funhouse.2019.WEB-DL.720p.W
Дата кодирования : UTC 2020-06-14 14:45:54
Программа кодирования : mkvmerge v23.0.0 ('The Bride Said No') 64-bit
Библиотека кодирования : libebml v1.3.6 + libmatroska v1.4.9

Видео
Идентификатор : 1
Формат : AVC
Формат/Информация : Advanced Video Codec
Профиль формата : Main@L3.1
Настройки формата : 2 Ref Frames
Параметр CABAC формата : Нет
Параметр RefFrames формата : 2 кадра
Идентификатор кодека : V_MPEG4/ISO/AVC
Продолжительность : 1 ч. 41 м.
Битрейт : 4 036 Кбит/сек
Ширина : 960 пикселей
Высота : 638 пикселей
Соотношение сторон : 2,006
Режим частоты кадров : Постоянный
Частота кадров : 25,000 кадров/сек
Цветовое пространство : YUV
Субдискретизация насыщенности : 4:2:0
Битовая глубина : 8 бит
Тип развёртки : Прогрессивная
Бит/(Пиксели*Кадры) : 0.264
Размер потока : 2,87 Гбайт (87%)
Язык : English
Default : Да
Forced : Нет
Цветовой диапазон : Limited
Основные цвета : BT.709
Характеристики трансфера : BT.709
Коэффициенты матрицы : BT.709

Аудио #1
Идентификатор : 2
Формат : AC-3
Формат/Информация : Audio Coding 3
Коммерческое название : Dolby Digital
Идентификатор кодека : A_AC3
Продолжительность : 1 ч. 41 м.
Вид битрейта : Постоянный
Битрейт : 384 Кбит/сек
Каналы : 6 каналов
Channel layout : L R C LFE Ls Rs
Частота : 48,0 КГц
Частота кадров : 31,250 кадров/сек (1536 SPF)
Метод сжатия : С потерями
Задержка видео : -40 мс.
Размер потока : 280 Мбайт (8%)
Язык : Russian
Service kind : Complete Main
Default : Да
Forced : Нет

Аудио #2
Идентификатор : 3
Формат : AC-3
Формат/Информация : Audio Coding 3
Коммерческое название : Dolby Digital
Идентификатор кодека : A_AC3
Продолжительность : 1 ч. 41 м.
Вид битрейта : Постоянный
Битрейт : 192 Кбит/сек
Каналы : 2 канала
Channel layout : L R
Частота : 48,0 КГц
Частота кадров : 31,250 кадров/сек (1536 SPF)
Метод сжатия : С потерями
Задержка видео : -40 мс.
Размер потока : 140 Мбайт (4%)
Язык : English
Service kind : Complete Main
Default : Нет
Forced : Нет

Меню
00:00:00.000 : en:CHAPTER 1
00:08:18.040 : en:CHAPTER 2
00:16:40.680 : en:CHAPTER 3
00:24:51.600 : en:CHAPTER 4
00:32:57.040 : en:CHAPTER 5
00:41:14.200 : en:CHAPTER 6
00:49:07.160 : en:CHAPTER 7
00:57:16.920 : en:CHAPTER 8
01:06:28.040 : en:CHAPTER 9
01:14:49.680 : en:CHAPTER 10
01:23:16.120 : en:CHAPTER 11
01:31:23.800 : en:CHAPTER 12

pb.wtf



Скачать Эксперимент «За стеклом» через торрент http://c.radikal.ru/c40/2006/f1/a49307a5b5f7.jpg Скачать фильм Эксперимент «За стеклом» через торрент бесплантно в хорошем качестве Описание: Восемь интернет-знаменитостей участвуют в онлайн-шоу, где зрители решают их судьбу. Скоро становится понятно, что это не обычная ... 10 10 5
Торрент: Зарегистрирован [2020-06-14 15:34] · скачан: 173 раз
Статус: √ проверено
Размер: 3.28 GB
Как cкачать? Как скачать Эксперимент «За стеклом» через торрент | qTorrent

% Раздел Тема Автор DL S | L
Фильмы 2019-2020 [DVDrip, WEB-DLRip, HDrip] (DUB, MVO) [ 746 MB ] Эксперимент «За стеклом» / Funhouse [2019 WEB-DLRip] bober100 Скачать
3 | 0
Фильмы (WEB-DL 720p, 1080p) [ 3.71 GB ] Эксперимент «За стеклом» / Funhouse [2019 WEB-DL 1080p] bober100 Скачать
10 | 0
Фильмы 2019-2020 [DVDrip, WEB-DLRip, HDrip] (DUB, MVO) [ 1.46 GB ] Эксперимент «За стеклом» / Funhouse [2019 WEB-DLRip] bober100 Скачать
10 | 0

28-11-2019 20:33  

Отключить всю рекламу на сайте

    Дорогой пользователь! Огромная просьба, поблагодарите релизера, оцените раздачу и оставьте свои комментарий, если Вы скачали Эксперимент «За стеклом» через торрент бесплатно! Внесите свою лепту в развитие PiratBit!
    Комментировать посты могут только пользователи прошедшие не сложную регистрацию
    Показать сообщения:    

    Эксперимент «За стеклом» через торрент
    Скачать бесплатно Эксперимент «За стеклом»
    Эксперимент «За стеклом» скачать торрент
    Эксперимент «За стеклом» смотреть онлайн
    Cкачать фильм Эксперимент «За стеклом» бесплатно
    Эксперимент «За стеклом» скачать торрент в хорошем качестве
    Эксперимент «За стеклом» смотреть онлайн бесплатно в хорошем качестве


    Вы не можете начинать темы
    Вы не можете отвечать на сообщения
    Вы не можете редактировать свои сообщения
    Вы не можете удалять свои сообщения
    Вы не можете голосовать в опросах
    Вы не можете прикреплять файлы к сообщениям
    Вы можете скачивать файлы