Anonymous, доброй ночи, присоединяйтесь к нам в Telegram!, здесь всегда актуальный адрес сайта, оперативная поддержка и многое другое!

>

5.6

iTunes

7.4

iTunes

7.9

MVO

1

7.7

1 сезон

6.8

iTunes

7.3

1 сезон

13

6.7

1 сезон

8.3

RePack

30

ОНЛАЙН

pack

9.9

Лицензия

ВАЖНО

ИГРА 18+

pack

7.3

RePack

MK11

7.7

RePack

jed

7.8

RePack

fifa19

8.5

RePack

RDR2

RePack

NEED FOR SPEED™ PAYBACK

4 сезон

9 сезон

Бесстыжие 9 сезон

Все сериалы

все сериалы на PB.wtf

RePack

FAR CRY 5

Anonymous, доброй ночи, мы катастрофически не успеваем собрать деньги на оплату серверов, помогите нам пожалуйста 5,10,15р., для нас важна любая помощь . В качестве благодарности мы отключим Вам всю рекламу на сайте (укажите свой ник в строку Ваше имя)!

×
  
Magnet ссылка

Светлое будущее: Трилогия / A Better Tomorow / Ying hung boon sik: Trilogy (Джон Ву, Цуи Харк)[1986, 1987, 1989, Гонконг, боевик, триллер, драма, криминал, BDRip 720p / 60fps , MVO] от R.G. HD-Films pb.wtf

Светлое будущее: Трилогия через торрент pb.wtf

Размер: 12.99 GB | Добавлен: 1 год 4 мес. назад | Торрент скачан:13 раз
Смотреть онлайн Светлое будущее: Трилогия | Скачать    Ребята, помогите собрать деньги на оплату серверов!!!

14-06-2020 17:43 Светлое будущее: Трилогия Скачать торрент  

Светлое будущее: Трилогия / Право на жизнь / A Better Tomorow / Ying hung boon sik: Trilogy
Светлое будущее / Право на жизнь / A Better Tomorrow / Ying hung boon sik
Год выпуска: : 1986
Страна: : Гонконг
Жанр: : боевик, триллер, драма, криминал
Продолжительность: 01:35:16
Перевод: Профессиональный (многоголосый, закадровый) студия "Kravec"
Субтитры: Russian, English

Режиссер: Джон Ву

Премьера в мире: 2 августа 1986

rating

В ролях: Ланг Ти, Чоу Юнь-Фат, Лесли Чун, Эмили Чу, Вайсэ Лээ, Фенг Тиен, Джон Ву, Кеннет Цан, Фуй-Он Шин

Сюжет фильма: Еще недавно близкие друзья Хо и Марк были большими авторитетами в гонконгской мафии, жили по понятиям, с каким-никаким кодексом правил. Но первый попал на три года в тюрьму и, освободившись, решил завязать, а второй, покалеченный во время перестрелки, теперь побирается. Новый босс преступной группировки, беспредельщик, выбившийся из шестерок-лизоблюдов, с садистским удовольствием пытается отыграться на друзьях за прежние унижения, а, кроме того, хочет втянуть в свои грязные дела младшего брата Хо, инспектора полиции…


Качество видео: BDRip 720p / 60 FPS
Формат: MKV
Видео кодек: H.264
Аудио кодек: AC3
Видео : x264, 1280 x 720 ( 16:9 ), 5748 kbps, 60,000 fps, ( 0.104 bpp)
Аудио : Русский, AC-3, 48.0 KHz, 6 ch, 384 Kbps MVO ( Kravec )
Релиз от:

скриншот   скриншот   скриншот   скриншот   скриншот   скриншот  Автор рипа: slaventi-69
x264 [info]: frame I:1411 Avg QP:18.58 size: 71400
x264 [info]: frame P:86768 Avg QP:19.22 size: 24344
x264 [info]: frame B:254397 Avg QP:21.37 size: 7426
x264 [info]: consecutive B-frames: 4.0% 2.7% 10.5% 15.2% 55.4% 12.2%


Общее
Уникальный идентификатор : 186646871012558957556596097138777873069 (0x8C6AE139FA6A769A8E7CA3BCD7CB5AAD)
Полное имя : F:\A Better Tomorow Trilogy\A.Better.Tomorrow.(1986).BDRip.720p.(60 Fps).mkv
Формат : Matroska
Версия формата : Version 4
Размер файла : 4,08 Гбайт
Продолжительность : 1 ч. 35 м.
Общий поток : 6136 Кбит/сек
Название фильма : Светлое будущее / Право на жизнь / A Better Tomorrow / Ying hung boon sik (1986) BDRip 720p (60 Fps)
Дата кодирования : UTC 2020-06-13 14:22:10
Программа кодирования : mkvmerge v12.0.0 ('Trust / Lust') 64bit
Библиотека кодирования : libebml v1.3.4 + libmatroska v1.4.5

Видео
Идентификатор : 1
Формат : AVC
Формат/Информация : Advanced Video Codec
Профиль формата : High@L4.1
Настройки формата : CABAC / 8 Ref Frames
Параметр CABAC формата : Да
Параметр RefFrames формата : 8 кадров
Идентификатор кодека : V_MPEG4/ISO/AVC
Продолжительность : 1 ч. 35 м.
Битрейт : 5748 Кбит/сек
Ширина : 1280 пикселей
Высота : 720 пикселей
Соотношение сторон : 16:9
Режим частоты кадров : Постоянный
Частота кадров : 60,000 кадров/сек
Цветовое пространство : YUV
Субдискретизация насыщенности : 4:2:0
Битовая глубина : 8 бит
Тип развёртки : Прогрессивная
Бит/(Пиксели*Кадры) : 0.104
Размер потока : 3,82 Гбайт (94%)
Заголовок : slaventi-69 ( R.G. HD-Films | 60 fps )
Библиотека кодирования : x264 core 130 r2273 b3065e6
Настройки программы : cabac=1 / ref=8 / deblock=1:0:0 / analyse=0x3:0x133 / me=umh / subme=9 / psy=1 / psy_rd=1.00:0.00 / mixed_ref=1 / me_range=30 / chroma_me=1 / trellis=2 / 8x8dct=1 / cqm=0 / deadzone=21,11 / fast_pskip=0 / chroma_qp_offset=-2 / threads=10 / lookahead_threads=2 / sliced_threads=0 / nr=0 / decimate=1 / interlaced=0 / bluray_compat=0 / constrained_intra=0 / bframes=5 / b_pyramid=2 / b_adapt=2 / b_bias=0 / direct=2 / weightb=1 / open_gop=0 / weightp=2 / keyint=600 / keyint_min=23 / scenecut=40 / intra_refresh=0 / rc=crf / mbtree=0 / crf=18.3 / qcomp=0.60 / qpmin=0 / qpmax=69 / qpstep=4 / ip_ratio=1.40 / pb_ratio=1.30 / aq=1:1.00
Язык : Chinese
Default : Да
Forced : Нет

Аудио
Идентификатор : 2
Формат : AC-3
Формат/Информация : Audio Coding 3
Коммерческое название : Dolby Digital
Идентификатор кодека : A_AC3
Продолжительность : 1 ч. 35 м.
Вид битрейта : Постоянный
Битрейт : 384 Кбит/сек
Каналы : 6 каналов
Channel layout : L R C LFE Ls Rs
Частота : 48,0 КГц
Частота кадров : 31,250 кадров/сек (1536 SPF)
Битовая глубина : 16 бит
Метод сжатия : С потерями
Размер потока : 261 Мбайт (6%)
Заголовок : MVO ( Kravec )
Язык : Russian
ServiceKind/String : Complete Main
Default : Да
Forced : Нет

Текст #1
Идентификатор : 3
Формат : UTF-8
Идентификатор кодека : S_TEXT/UTF8
Идентификатор кодека/Информация : UTF-8 Plain Text
Продолжительность : 1 ч. 32 м.
Битрейт : 62 бит/сек
ElementCount : 773
Размер потока : 42,1 Кбайт (0%)
Заголовок : русские
Язык : Russian
Default : Да
Forced : Нет

Текст #2
Идентификатор : 4
Формат : UTF-8
Идентификатор кодека : S_TEXT/UTF8
Идентификатор кодека/Информация : UTF-8 Plain Text
Продолжительность : 1 ч. 33 м.
Битрейт : 28 бит/сек
ElementCount : 924
Размер потока : 19,4 Кбайт (0%)
Заголовок : английские
Язык : English
Default : Нет
Forced : Нет

Просьба к переливающим на другие сайты, в оформлении указывайте пожалуйста авторство группы R.G. HD-Films
Светлое будущее -2 / Право на жизнь-2 / A Better Tomorrow-2 / Ying hung boon sik-2
Год выпуска: : 1987
Страна: : Гонконг
Жанр: : боевик, триллер, драма, криминал
Продолжительность: 01:43:37
Перевод: Профессиональный (многоголосый закадровый) студия "Kravec"
Субтитры: Russian, English

Режиссер: Джон Ву

Премьера в мире: 17 декабря 1987

rating

В ролях: Дин Шек, Ланг Ти, Лесли Чун, Чоу Юнь-Фат, Эмили Чу, Фуй-Он Син, Кеннет Цан, Реджина Кент, Синг Чау Вэй, Марко Во...

Сюжет фильма: Вторая часть фильма "Светлое будущее" рассказывает о том, как бывший гангстер Хо, выйдя из тюрьмы, при помощи своего брата-полицейского Кита внедряется в банду фальшивомонетчиков.
Когда жизни её главаря Лунга начинает грозить опасность, братья переправляют его в Нью-Йорк под защиту своего друга и брата-близнеца Марка Гора - Кена. Спасая Лунга, Кен бесстрашно сражается с наёмными убийцами, подосланными мафией. И следуя чувству долга, он оставляет свои дела и отправляется в Гонконг, чтобы вместе с друзьями разобраться с бандитами на месте.


Качество видео: BDRip 720p / 60 FPS
Формат: MKV
Видео кодек: H.264
Аудио кодек: AC3
Видео : x264, 1280 x 688 ( 1,85:1 ), 5431 kbps, 60,000 fps, ( 0.103 bpp)
Аудио : Русский, AC-3, 48.0 KHz, 6 ch, 384 Kbps MVO ( Kravec )
Релиз от:

скриншот   скриншот   скриншот   скриншот   скриншот   скриншот  Автор рипа: slaventi-69
x264 [info]: frame I:1763 Avg QP:18.33 size: 70218
x264 [info]: frame P:96753 Avg QP:19.19 size: 23302
x264 [info]: frame B:274725 Avg QP:21.40 size: 6716
x264 [info]: consecutive B-frames: 4.6% 3.2% 10.7% 15.6% 53.8% 12.2%


Общее
Уникальный идентификатор : 212332790858169937891782065851925856907 (0x9FBDCED9ABF2EC8EB5AE715D78AD028B)
Полное имя : F:\A Better Tomorow Trilogy\A.Better.Tomorrow.2.(1987).BDRip.720p.(60 Fps).mkv
Формат : Matroska
Версия формата : Version 4
Размер файла : 4,21 Гбайт
Продолжительность : 1 ч. 43 м.
Общий поток : 5819 Кбит/сек
Название фильма : Светлое будущее -2 / Право на жизнь-2 / A Better Tomorrow-2 / Ying hung boon sik-2 (1987) BDRip 720p (60 Fps)
Дата кодирования : UTC 2020-06-13 14:35:23
Программа кодирования : mkvmerge v12.0.0 ('Trust / Lust') 64bit
Библиотека кодирования : libebml v1.3.4 + libmatroska v1.4.5

Видео
Идентификатор : 1
Формат : AVC
Формат/Информация : Advanced Video Codec
Профиль формата : High@L4.1
Настройки формата : CABAC / 8 Ref Frames
Параметр CABAC формата : Да
Параметр RefFrames формата : 8 кадров
Идентификатор кодека : V_MPEG4/ISO/AVC
Продолжительность : 1 ч. 43 м.
Битрейт : 5431 Кбит/сек
Ширина : 1280 пикселей
Высота : 688 пикселей
Соотношение сторон : 1,85:1
Режим частоты кадров : Постоянный
Частота кадров : 60,000 кадров/сек
Цветовое пространство : YUV
Субдискретизация насыщенности : 4:2:0
Битовая глубина : 8 бит
Тип развёртки : Прогрессивная
Бит/(Пиксели*Кадры) : 0.103
Размер потока : 3,93 Гбайт (93%)
Заголовок : slaventi-69 ( R.G. HD-Films | 60 fps )
Библиотека кодирования : x264 core 130 r2273 b3065e6
Настройки программы : cabac=1 / ref=8 / deblock=1:0:0 / analyse=0x3:0x133 / me=umh / subme=9 / psy=1 / psy_rd=1.00:0.00 / mixed_ref=1 / me_range=30 / chroma_me=1 / trellis=2 / 8x8dct=1 / cqm=0 / deadzone=21,11 / fast_pskip=0 / chroma_qp_offset=-2 / threads=10 / lookahead_threads=2 / sliced_threads=0 / nr=0 / decimate=1 / interlaced=0 / bluray_compat=0 / constrained_intra=0 / bframes=5 / b_pyramid=2 / b_adapt=2 / b_bias=0 / direct=2 / weightb=1 / open_gop=0 / weightp=2 / keyint=600 / keyint_min=23 / scenecut=40 / intra_refresh=0 / rc=crf / mbtree=0 / crf=18.1 / qcomp=0.60 / qpmin=0 / qpmax=69 / qpstep=4 / ip_ratio=1.40 / pb_ratio=1.30 / aq=1:1.00
Язык : Chinese
Default : Да
Forced : Нет

Аудио
Идентификатор : 2
Формат : AC-3
Формат/Информация : Audio Coding 3
Коммерческое название : Dolby Digital
Идентификатор кодека : A_AC3
Продолжительность : 1 ч. 43 м.
Вид битрейта : Постоянный
Битрейт : 384 Кбит/сек
Каналы : 6 каналов
Channel layout : L R C LFE Ls Rs
Частота : 48,0 КГц
Частота кадров : 31,250 кадров/сек (1536 SPF)
Битовая глубина : 16 бит
Метод сжатия : С потерями
Размер потока : 285 Мбайт (7%)
Заголовок : MVO ( Kravec )
Язык : Russian
ServiceKind/String : Complete Main
Default : Да
Forced : Нет

Текст #1
Идентификатор : 3
Формат : UTF-8
Идентификатор кодека : S_TEXT/UTF8
Идентификатор кодека/Информация : UTF-8 Plain Text
Продолжительность : 1 ч. 41 м.
Битрейт : 42 бит/сек
ElementCount : 712
Размер потока : 31,8 Кбайт (0%)
Заголовок : Русские
Язык : Russian
Default : Нет
Forced : Нет

Текст #2
Идентификатор : 4
Формат : UTF-8
Идентификатор кодека : S_TEXT/UTF8
Идентификатор кодека/Информация : UTF-8 Plain Text
Продолжительность : 1 ч. 42 м.
Битрейт : 30 бит/сек
ElementCount : 951
Размер потока : 23,2 Кбайт (0%)
Заголовок : английские
Язык : English
Default : Нет
Forced : Нет

Просьба к переливающим на другие сайты, в оформлении указывайте пожалуйста авторство группы R.G. HD-Films
Светлое будущее-3 / Право на жизнь-3 / A Better Tomorrow-3 / Ying hung boon sik-3
Год выпуска: : 1989
Страна: : Гонконг
Жанр: : боевик, триллер, драма, криминал
Продолжительность: 01:59:03
Перевод: Дубляж
Субтитры: Russian, English

Режиссер: Цуи Харк

Премьера в мире: 9 сентября 1989

rating

В ролях: Чоу Юнь-Фат, Тони Люн Ка-фай, Анита Муи, Кьень Ши, Сабуро Токито, Вэй Лун Чэн, Мэгги Хо Йи Чунг, Эндрю Кэм Юэнь Ва

Сюжет фильма: В третьем фильме за светлое будущее для себя, а не для народа борются два двоюродных брата. Действие начинается во Вьетнаме в конце войны с американцами. В Китае идет культурная революция. В Камбодже война. В эти смутные времена наши герои занимаются преступностью, сея горы трупов под руководством роковой красавицы...

Качество видео: BDRip 720p / 60 FPS
Формат: MKV
Видео кодек: H.264
Аудио кодек: AC3
Видео : x264, 1280 x 688 ( 1,85:1 ), 5268 kbps, 60,000 fps, ( 0.100 bpp)
Аудио : Русский, AC-3, 48.0 KHz, 6 ch, 384 Kbps MVO ( Kravec )
Релиз от:

скриншот   скриншот   скриншот   скриншот   скриншот   скриншот  Автор рипа: slaventi-69
x264 [info]: frame I:1643 Avg QP:17.69 size: 66875
x264 [info]: frame P:109866 Avg QP:18.60 size: 22576
x264 [info]: frame B:316599 Avg QP:20.93 size: 6659
x264 [info]: consecutive B-frames: 3.9% 2.6% 12.0% 19.0% 50.8% 11.7%


Общее
Уникальный идентификатор : 249732253189342648831695927578392491176 (0xBBE0AEB50570405FAECAF68F841774A8)
Полное имя : F:\A Better Tomorow Trilogy\A.Better.Tomorrow.3.(1989).BDRip.720p.(60 Fps).mkv
Формат : Matroska
Версия формата : Version 4
Размер файла : 4,70 Гбайт
Продолжительность : 1 ч. 58 м.
Общий поток : 5656 Кбит/сек
Название фильма : Светлое будущее -3 / Право на жизнь-3 / A Better Tomorrow-3 / Ying hung boon sik-3 (1987) BDRip 720p (60 Fps)
Дата кодирования : UTC 2020-06-13 14:49:35
Программа кодирования : mkvmerge v12.0.0 ('Trust / Lust') 64bit
Библиотека кодирования : libebml v1.3.4 + libmatroska v1.4.5

Видео
Идентификатор : 1
Формат : AVC
Формат/Информация : Advanced Video Codec
Профиль формата : High@L4.1
Настройки формата : CABAC / 8 Ref Frames
Параметр CABAC формата : Да
Параметр RefFrames формата : 8 кадров
Идентификатор кодека : V_MPEG4/ISO/AVC
Продолжительность : 1 ч. 58 м.
Битрейт : 5268 Кбит/сек
Ширина : 1280 пикселей
Высота : 688 пикселей
Соотношение сторон : 1,85:1
Режим частоты кадров : Постоянный
Частота кадров : 60,000 кадров/сек
Цветовое пространство : YUV
Субдискретизация насыщенности : 4:2:0
Битовая глубина : 8 бит
Тип развёртки : Прогрессивная
Бит/(Пиксели*Кадры) : 0.100
Размер потока : 4,38 Гбайт (93%)
Заголовок : slaventi-69 ( R.G. HD-Films | 60 fps )
Библиотека кодирования : x264 core 130 r2273 b3065e6
Настройки программы : cabac=1 / ref=8 / deblock=1:0:0 / analyse=0x3:0x133 / me=umh / subme=9 / psy=1 / psy_rd=1.00:0.00 / mixed_ref=1 / me_range=30 / chroma_me=1 / trellis=2 / 8x8dct=1 / cqm=0 / deadzone=21,11 / fast_pskip=0 / chroma_qp_offset=-2 / threads=10 / lookahead_threads=2 / sliced_threads=0 / nr=0 / decimate=1 / interlaced=0 / bluray_compat=0 / constrained_intra=0 / bframes=5 / b_pyramid=2 / b_adapt=2 / b_bias=0 / direct=2 / weightb=1 / open_gop=0 / weightp=2 / keyint=600 / keyint_min=23 / scenecut=40 / intra_refresh=0 / rc=crf / mbtree=0 / crf=18.0 / qcomp=0.60 / qpmin=0 / qpmax=69 / qpstep=4 / ip_ratio=1.40 / pb_ratio=1.30 / aq=1:1.00
Язык : Chinese
Default : Да
Forced : Нет

Аудио
Идентификатор : 2
Формат : AC-3
Формат/Информация : Audio Coding 3
Коммерческое название : Dolby Digital
Идентификатор кодека : A_AC3
Продолжительность : 1 ч. 58 м.
Вид битрейта : Постоянный
Битрейт : 384 Кбит/сек
Каналы : 6 каналов
Channel layout : L R C LFE Ls Rs
Частота : 48,0 КГц
Частота кадров : 31,250 кадров/сек (1536 SPF)
Битовая глубина : 16 бит
Метод сжатия : С потерями
Размер потока : 327 Мбайт (7%)
Заголовок : MVO ( Kravec )
Язык : Russian
ServiceKind/String : Complete Main
Default : Да
Forced : Нет

Текст #1
Идентификатор : 3
Формат : UTF-8
Идентификатор кодека : S_TEXT/UTF8
Идентификатор кодека/Информация : UTF-8 Plain Text
Продолжительность : 1 ч. 54 м.
Битрейт : 56 бит/сек
ElementCount : 887
Размер потока : 47,9 Кбайт (0%)
Язык : Russian
Default : Да
Forced : Нет

Текст #2
Идентификатор : 4
Формат : UTF-8
Идентификатор кодека : S_TEXT/UTF8
Идентификатор кодека/Информация : UTF-8 Plain Text
Продолжительность : 1 ч. 56 м.
Битрейт : 31 бит/сек
ElementCount : 945
Размер потока : 27,3 Кбайт (0%)
Язык : English
Default : Нет
Forced : Нет

Просьба к переливающим на другие сайты, в оформлении указывайте пожалуйста авторство группы R.G. HD-Films
pb.wtf



Скачать Светлое будущее: Трилогия через торрент http://img10.lostpic.net/2016/04/26/71f28309f36c2630a897cb3a81598120.png Скачать, смотреть онлайн Светлое будущее: Трилогия бесплантно в хорошем качестве В ролях: Ланг Ти, Чоу Юнь-Фат, Лесли Чун, Эмили Чу, Вайсэ Лээ, Фенг Тиен, Джон Ву, Кеннет Цан, Фуй-Он Шин Сюжет фильма: Еще недавно ... 10 10 3
Торрент: Зарегистрирован [2020-06-14 17:43] · скачан: 13 раз
Статус: √ проверено
Размер: 12.99 GB
Как cкачать? Как скачать Светлое будущее: Трилогия через торрент | UTorrent

28-11-2019 20:33  

Отключить всю рекламу на сайте

15-06-2020 05:53 Светлое будущее: Трилогия Скачать торрент  

Благодарю за сборник!!! Первая часть как всегда - супер, две остальные по слабее будут, но вполне смотрибельны. Спасибо большое за хорошее кино!!!pb.wtf



    Дорогой пользователь! Огромная просьба, поблагодарите релизера, оцените раздачу и оставьте свои комментарий, если Вы скачали Светлое будущее: Трилогия через торрент бесплатно!
    Комментировать посты могут только пользователи прошедшие не сложную регистрацию
    Показать сообщения:    

    Светлое будущее: Трилогия через торрент
    Скачать бесплатно Светлое будущее: Трилогия
    Светлое будущее: Трилогия скачать торрент
    Светлое будущее: Трилогия смотреть онлайн
    Cкачать фильм Светлое будущее: Трилогия бесплатно
    Светлое будущее: Трилогия скачать торрент в хорошем качестве
    Светлое будущее: Трилогия смотреть онлайн бесплатно в хорошем качестве


    Вы не можете начинать темы
    Вы не можете отвечать на сообщения
    Вы не можете редактировать свои сообщения
    Вы не можете удалять свои сообщения
    Вы не можете голосовать в опросах
    Вы не можете прикреплять файлы к сообщениям
    Вы можете скачивать файлы