2 сезон

iTunes

MVO

1

2 сезон

iTunes

iTunes

1 сезон

RePack

30

Новинка

ВАЖНО

ИГРА 18+

pack

RePack

MK11
pack

Легкие деньги

RePack

jed

RePack

fifa19

RePack

RDR2

RePack

NEED FOR SPEED™ PAYBACK

4 сезон

9 сезон

Бесстыжие 9 сезон

Все сериалы

все сериалы на PB.wtf

RePack

FAR CRY 5

Anonymous, доброе утро, мы не успеваем собрать деньги на оплату серверов за декабрь и январь, помогите нам пожалуйста в это трудное время. В качестве благодарности мы отключим Вам всю рекламу на сайте (укажите свой ник в строку Ваше имя)!

×
  
Magnet ссылка

Зловещие мертвецы 3: Армия Тьмы / Army of Darkness (Сэм Рэйми / Sam Raimi) [1992 г., ужасы, фэнтези, боевик, комедия, BDRip 720p / 60 FPS, DVO+AVO] pb.wtf

Зловещие мертвецы 3: Армия Тьмы через торрент pb.wtf

Размер: 3.29 GB | Добавлен: 7 мес. назад | Торрент скачан:115 раз
Скачать  

15-06-2020 10:59 Зловещие мертвецы 3: Армия Тьмы Скачать торрент  

Зловещие мертвецы 3: Армия Тьмы / Army of Darkness
Год выпуска: 1992
Страна: США
Жанр: ужасы, фэнтези, боевик, комедия
Продолжительность: ужасы, фэнтези, боевик, комедия
Перевод: DVO ( П. Гланц и И. Королева ) + AVO ( Михалев )
Субтитры: русские, английские

Режиссер: Сэм Рэйми / Sam Raimi

Бюджет: $11 000 000
Премьера в мире: 9 октября 1992



В ролях: Брюс Кэмпбелл (Ash), Эмбет Дэвидц (Sheila), Маркус Гилберт (Lord Arthur), Йен Эберкромби (Wiseman), Ричард Гроув (Duke Henry the Red), Тимоти Патрик Куилл (Blacksmith), Майкл Эрл Рейд (Gold Tooth), Бриджит Фонда (Linda), Патриша Тэллман (Possessed Witch), Тед Рэйми (Cowardly Warrior / Second Supportive Villager / S-Mart Clerk), Дек Андерсон (Mini-Ash #2), Брюс Томас (Mini-Ash #3)

Описание: По воле случая Эш переносится в далекое прошлое. Вместе со своим автомобилем и двухстволкой он оказывается в 13 веке. В этом мрачном средневековье люди страдают от сил тьмы. Бедняга Эш был пойман добропорядочными гражданами и помещен в местную тюрьму. Он с трудом смог убедить судью в том, что он вовсе не шпион из враждебного королевства. Он решает помочь людям в битве с врагами.

Качество: BDRip 720p / 60 FPS
Формат: MKV
Видео кодек: H.264
Аудио кодек: AC3
Видео: x264, 1280 x 720 ( 16:9 ), 4000 kbps, 59,940 fps, ( 0.072 bpp)
Аудио#1: Русский, AC-3, 48.0 KHz, 6 ch, 448 Kbps DVO ( П. Гланц и И. Королева )
Аудио#2: Русский, AC-3, 48.0 KHz, 6 ch, 448 Kbps AVO ( Михалев )
скриншот   скриншот   скриншот   скриншот  

Общее
Уникальный идентификатор : 191582308199764840099371359970311028757 (0x9021691121FC6AC9AABE56AEF6DC4015)
Полное имя : Z:\На заливку\Армия Тьмы.1993,BDRip.720p.(60Fps).mkv
Формат : Matroska
Версия формата : Version 4
Размер файла : 3,29 Гбайт
Продолжительность : 1 ч. 36 м.
Общий поток : 4 889 Кбит/сек
Название фильма : Армия Тьмы.1993,BDRip.720p.(60Fps)
Дата кодирования : UTC 2020-05-31 06:21:54
Программа кодирования : mkvmerge v7.2.0 ('On Every Street') 64bit built on Sep 13 2014 15:52:10
Библиотека кодирования : libebml v1.3.0 + libmatroska v1.4.1
Обложка : Yes
Attachments : cover.jpg

Видео
Идентификатор : 1
Формат : AVC
Формат/Информация : Advanced Video Codec
Профиль формата : High@L4.1
Настройки формата : CABAC / 8 Ref Frames
Параметр CABAC формата : Да
Параметр RefFrames формата : 8 кадров
Идентификатор кодека : V_MPEG4/ISO/AVC
Продолжительность : 1 ч. 36 м.
Битрейт : 4 000 Кбит/сек
Ширина : 1 280 пикселей
Высота : 720 пикселей
Соотношение сторон : 16:9
Режим частоты кадров : Постоянный
Частота кадров : 59,940 кадров/сек
Цветовое пространство : YUV
Субдискретизация насыщенности : 4:2:0
Битовая глубина : 8 бит
Тип развёртки : Прогрессивная
Бит/(Пиксели*Кадры) : 0.072
Размер потока : 2,68 Гбайт (82%)
Библиотека кодирования : x264 core 146 r2538 121396c
Настройки программы : cabac=1 / ref=8 / deblock=1:0:0 / analyse=0x3:0x113 / me=umh / subme=9 / psy=1 / psy_rd=1.00:0.10 / mixed_ref=1 / me_range=32 / chroma_me=1 / trellis=2 / 8x8dct=1 / cqm=0 / deadzone=21,11 / fast_pskip=0 / chroma_qp_offset=-3 / threads=6 / lookahead_threads=1 / sliced_threads=0 / nr=0 / decimate=1 / interlaced=0 / bluray_compat=0 / constrained_intra=0 / bframes=16 / b_pyramid=2 / b_adapt=2 / b_bias=0 / direct=3 / weightb=1 / open_gop=0 / weightp=2 / keyint=250 / keyint_min=25 / scenecut=40 / intra_refresh=0 / rc_lookahead=40 / rc=2pass / mbtree=0 / bitrate=4000 / ratetol=1.0 / qcomp=0.60 / qpmin=0 / qpmax=69 / qpstep=4 / cplxblur=20.0 / qblur=0.5 / vbv_maxrate=14000 / vbv_bufsize=14000 / nal_hrd=none / filler=0 / ip_ratio=1.40 / pb_ratio=1.30 / aq=1:1.00
Язык : English
Default : Да
Forced : Нет

Аудио #1
Идентификатор : 2
Формат : AC-3
Формат/Информация : Audio Coding 3
Коммерческое название : Dolby Digital
Идентификатор кодека : A_AC3
Продолжительность : 1 ч. 36 м.
Вид битрейта : Постоянный
Битрейт : 448 Кбит/сек
Каналы : 6 каналов
Channel layout : L R C LFE Ls Rs
Частота : 48,0 КГц
Частота кадров : 31,250 кадров/сек (1536 SPF)
Метод сжатия : С потерями
Размер потока : 309 Мбайт (9%)
Заголовок : DVO ( П. Гланц и И. Королева )
Язык : Russian
Service kind : Complete Main
Default : Нет
Forced : Нет

Аудио #2
Идентификатор : 3
Формат : AC-3
Формат/Информация : Audio Coding 3
Коммерческое название : Dolby Digital
Идентификатор кодека : A_AC3
Продолжительность : 1 ч. 36 м.
Вид битрейта : Постоянный
Битрейт : 448 Кбит/сек
Каналы : 6 каналов
Channel layout : L R C LFE Ls Rs
Частота : 48,0 КГц
Частота кадров : 31,250 кадров/сек (1536 SPF)
Метод сжатия : С потерями
Размер потока : 309 Мбайт (9%)
Заголовок : AVO ( Михалев )
Язык : Russian
Service kind : Complete Main
Default : Нет
Forced : Нет

Текст #1
Идентификатор : 4
Формат : UTF-8
Идентификатор кодека : S_TEXT/UTF8
Идентификатор кодека/Информация : UTF-8 Plain Text
Продолжительность : 1 ч. 30 м.
Битрейт : 47 бит/сек
Count of elements : 649
Размер потока : 31,4 Кбайт (0%)
Язык : Russian
Default : Нет
Forced : Нет

Текст #2
Идентификатор : 5
Формат : UTF-8
Идентификатор кодека : S_TEXT/UTF8
Идентификатор кодека/Информация : UTF-8 Plain Text
Продолжительность : 1 ч. 30 м.
Битрейт : 43 бит/сек
Count of elements : 564
Размер потока : 28,5 Кбайт (0%)
Язык : Russian
Default : Нет
Forced : Нет

Текст #3
Идентификатор : 6
Формат : UTF-8
Идентификатор кодека : S_TEXT/UTF8
Идентификатор кодека/Информация : UTF-8 Plain Text
Продолжительность : 1 ч. 30 м.
Битрейт : 28 бит/сек
Count of elements : 643
Размер потока : 18,9 Кбайт (0%)
Язык : English
Default : Нет
Forced : Нет

Меню
00:00:00.000 : en:00:00:00.000
00:03:14.319 : en:00:03:14.319
00:09:24.272 : en:00:09:24.272
00:19:25.414 : en:00:19:25.414
00:23:13.100 : en:00:23:13.100
00:25:52.801 : en:00:25:52.801
00:31:41.233 : en:00:31:41.233
00:41:40.581 : en:00:41:40.581
00:50:15.679 : en:00:50:15.679
00:54:57.503 : en:00:54:57.503
00:59:03.999 : en:00:59:03.999
01:01:53.376 : en:01:01:53.376
01:12:45.319 : en:01:12:45.319
01:23:39.848 : en:01:23:39.848
01:26:31.436 : en:01:26:31.436
01:30:57.744 : en:01:30:57.744

pb.wtf



Скачать Зловещие мертвецы 3: Армия Тьмы через торрент https://pic1.kartinco.top/images/12/d9vkf.jpg Скачать фильм Зловещие мертвецы 3: Армия Тьмы через торрент бесплантно в хорошем качестве Описание: По воле случая Эш переносится в далекое прошлое. Вместе со своим автомобилем и двухстволкой он оказывается в 13 веке. В этом ... 10 10 12
Info! Золотая раздача, скачанное не засчитывается.
Торрент: Зарегистрирован [2020-06-15 10:59] · скачан: 115 раз
Статус: √ проверено
Размер: 3.29 GB
Как cкачать? Как скачать Зловещие мертвецы 3: Армия Тьмы через торрент | UTorrent

% Раздел Тема Автор DL S | L
Фильмы до 2000 г. [ 1.45 GB ] Зловещие мертвецы 3: Армия тьмы / Army of Darkness [1992 BDRip-AVC] [Режиссёрская версия / Director's Cut] DVO dexter lex Скачать
2 | 0
Фильмы [HD 720p, 1080p] (Хороший звук DUB, MVO) [ 10.96 GB ] Зловещие мертвецы 3: Армия тьмы / Army of Darkness 3 [1992 HDDVD-remux 1080p] nikolay27rus Скачать
1 | 0
Фильмы до 2000 г. [ 739 MB ] Зловещие мертвецы 3: Армия тьмы / Army of Darkness [1992 BDRip-AVC] MVO dexter lex Скачать
1 | 0
Фильмы до 2000 г. [ 2.04 GB ] Зловещие мертвецы 3: Армия тьмы / Army of Darkness [1992 DVDRip] borislist1988 Скачать
1 | 0

28-11-2019 20:33  

Отключить всю рекламу на сайте

15-06-2020 12:59 Зловещие мертвецы 3: Армия Тьмы Скачать торрент  

Мегауматный фильм)))pb.wtf



16-06-2020 00:06 Зловещие мертвецы 3: Армия Тьмы Скачать торрент  

да, кэмпбелл красавчик. даже по говносерь умудрился вытащить на своей харизмеpb.wtf



16-06-2020 05:50 Зловещие мертвецы 3: Армия Тьмы Скачать торрент  

Отличный фильм, прям родоначальник черного юмора. Спасибо.pb.wtf



16-06-2020 06:08 Зловещие мертвецы 3: Армия Тьмы Скачать торрент  

"....хороший,плохой...Главный-у кого ружьё!"... pb.wtf



16-06-2020 13:39 Зловещие мертвецы 3: Армия Тьмы Скачать торрент  

Stopper68 писал(а):

"....хороший,плохой...Главный-у кого ружьё!"...

pb.wtf



    Дорогой пользователь! Огромная просьба, поблагодарите релизера, оцените раздачу и оставьте свои комментарий, если Вы скачали Зловещие мертвецы 3: Армия Тьмы через торрент бесплатно! Внесите свою лепту в развитие PiratBit!
    Комментировать посты могут только пользователи прошедшие не сложную регистрацию
    Показать сообщения:    

    Зловещие мертвецы 3: Армия Тьмы через торрент
    Скачать бесплатно Зловещие мертвецы 3: Армия Тьмы
    Зловещие мертвецы 3: Армия Тьмы скачать торрент
    Зловещие мертвецы 3: Армия Тьмы смотреть онлайн
    Cкачать фильм Зловещие мертвецы 3: Армия Тьмы бесплатно
    Зловещие мертвецы 3: Армия Тьмы скачать торрент в хорошем качестве
    Зловещие мертвецы 3: Армия Тьмы смотреть онлайн бесплатно в хорошем качестве


    Вы не можете начинать темы
    Вы не можете отвечать на сообщения
    Вы не можете редактировать свои сообщения
    Вы не можете удалять свои сообщения
    Вы не можете голосовать в опросах
    Вы не можете прикреплять файлы к сообщениям
    Вы можете скачивать файлы