Ссылка на приватное зеркало нашего сайта всего за 1$. Внимание количество ограничено!!!

2 сезон

iTunes

1 сезон

1

2 сезон

2 сезон

iTunes

1 сезон

RePack

30

Ultimate

ВАЖНО

ИГРА 18+

pack

RePack

MK11
pack

Забери бонус

RePack

jed

!!Акция!!

Alien_Rage

RePack

fifa19

RePack

Assassins Creed: Odyssey

RePack

NEED FOR SPEED™ PAYBACK

4 сезон

9 сезон

Бесстыжие 9 сезон

Все сериалы

все сериалы на PB.wtf

RePack

FAR CRY 5
  

Артемис Фаул / Artemis Fowl (Кеннет Брана) [2020, Фантастика, фэнтези, приключения, семейный, WEBRip 720p] [MVO] (HDRezka Studio) pb.wtf

Артемис Фаул через торрент pb.wtf

Раздают: 4 [ 0 KB/s ]
Размер: 3.96 GB | Добавлен: 5 мес. 11 д. назад | Торрент скачан:527 раз
Скачать  

15-06-2020 19:33 Артемис Фаул Скачать торрент  

Артемис Фаул / Artemis Fowl
Год выпуска: 2020
Страна: США
Жанр: Фантастика, фэнтези, приключения, семейный
Продолжительность: 01:34:30
Перевод: Профессиональный (многоголосый закадровый) *HDRezka Studio*
Субтитры: русские (forced)

Режиссер: Кеннет Брана

В ролях: Хонг Чау, Колин Фаррелл, Джош Гэд, Джуди Денч, Миранда Рэйсон, Нонсо Анози, Grace Molony, Эдриан Скарборо, Фердия Шоу, Никеш Пател

Описание: Укрытый от посторонних глаз, глубоко под поверхностью земной коры таится целый мир, населенный гномами, эльфами, пикси, лепреконами, брауни и другими волшебными существами. Они спрятались от людей и создали свою собственную весьма развитую цивилизацию. Их тайна так и оставалась бы нераскрытой, если бы не юный Артемис Фаул, прирожденный мошенник и единственный наследник древнего рода криминальных гениев. Он сумел не только найти доказательства существования подземного мира, но и придумал дерзкий план — ограбить его обитателей.

rating

бюджет --- $125 000 000

Качество видео: WEBRip 720p
Формат видео: MKV
Видео: AVC, 1280x720, 23.976 fps, ~5 435 kb/s
Аудио: 48 kHz, AC3 Dolby Digital, 3/2 (L,C,R,l,r) + LFE ch, ~448 kbps
General
Unique ID : 31407921569358918550900641196513694932 (0x17A0F2170B87C2B24458ED307CE014D4)
Complete name : G:\Artemis.Fowl.2020.WEBRip.720p.rus.5.1.HDREZKA.STUDIO.mkv
Format : Matroska
Format version : Version 4
File size : 3.96 GiB
Duration : 1 h 34 min
Overall bit rate mode : Variable
Overall bit rate : 6 003 kb/s
Encoded date : UTC 2020-06-15 13:09:57
Writing application : mkvmerge v28.2.0 ('The Awakening') 64-bit
Writing library : libebml v1.3.6 + libmatroska v1.4.9

Video
ID : 1
Format : AVC
Format/Info : Advanced Video Codec
Format profile : High@L4.1
Format settings : CABAC / 1 Ref Frames
Format settings, CABAC : Yes
Format settings, Reference : 1 frame
Codec ID : V_MPEG4/ISO/AVC
Duration : 1 h 34 min
Bit rate mode : Variable
Bit rate : 5 435 kb/s
Maximum bit rate : 2 000 kb/s
Width : 1 280 pixels
Height : 720 pixels
Display aspect ratio : 16:9
Frame rate mode : Constant
Frame rate : 23.976 (24000/1001) FPS
Color space : YUV
Chroma subsampling : 4:2:0
Bit depth : 8 bits
Scan type : Progressive
Bits/(Pixel*Frame) : 0.246
Stream size : 3.59 GiB (91%)
Default : Yes
Forced : No
Duration_Source : General_Duration

Audio
ID : 2
Format : AC-3
Format/Info : Audio Coding 3
Commercial name : Dolby Digital
Codec ID : A_AC3
Duration : 1 h 34 min
Bit rate mode : Constant
Bit rate : 448 kb/s
Channel(s) : 6 channels
Channel layout : L R C LFE Ls Rs
Sampling rate : 48.0 kHz
Frame rate : 31.250 FPS (1536 SPF)
Compression mode : Lossy
Stream size : 303 MiB (7%)
Language : Russian
Service kind : Complete Main
Default : Yes
Forced : No
Duration_Source : General_Duration
скриншот   скриншот   скриншот  
pb.wtf



Скачать Артемис Фаул через торрент https://i112.fastpic.ru/big/2020/0615/35/0280608a4032b1f113ad3f10e29ddc35.jpeg Скачать фильм Артемис Фаул через торрент бесплантно в хорошем качестве Описание: Укрытый от посторонних глаз, глубоко под поверхностью земной коры таится целый мир, населенный гномами, эльфами, пикси, ... 8.8 10 15
Торрент: Зарегистрирован [2020-06-15 19:33] · скачан: 527 раз
Статус: √ проверено
Размер: 3.96 GB
Как cкачать? Как скачать Артемис Фаул через торрент | qTorrent

% Раздел Тема Автор DL S | L
Фильмы 2019-2020 [DVDrip, WEB-DLRip, HDrip] (DUB, MVO) [ 747 MB ] Артемис Фаул / Artemis Fowl [2020 WEB-DLRip] MVO [HDRezka Studio] bober100 Скачать
5 | 0
Ultra HD (UHD: 2K, 4K, 8K) — видео сверхвысокой чёткости [ 11.43 GB ] Артемис Фаул / Artemis Fowl [2020 UHD WEB-DL 2160p] MVO [HDRezka Studio] bober100 Скачать
6 | 0
Фильмы (WEB-DL 720p, 1080p) [ 6.18 GB ] Артемис Фаул / Artemis Fowl [2020 WEB-DL 1080p] MVO [HDRezka Studio] bober100 Скачать
4 | 0


Последний раз редактировалось: killermax2013 (2020-06-15 20:27), всего редактировалось 2 раз(а)

28-11-2019 20:33  

Отключить всю рекламу на сайте

15-06-2020 19:35 Артемис Фаул Скачать торрент  

Судя по рейтингу imdb то фанаты книг не оценили.Гляну отпишусь (книги не читал )

Upd. Фильм посмотрел, ну такое себе Гари Потер на минималках рейтинг заслуженныйpb.wtf





Последний раз редактировалось: killermax2013 (2020-06-16 05:34), всего редактировалось 1 раз

15-06-2020 22:37 Артемис Фаул Скачать торрент  

Ну как фильм?pb.wtf



16-06-2020 04:38 Артемис Фаул Скачать торрент  

трейлер хоть и детский, но местами красивые спец.эффекты, на 125 лямов тянет,
жаль локализатора нету

UPd посмотрел, ничего глянуть можно, кинотеатра вполне достоин, про 4 бала killermax2013 загнул, 6-6.5\10,
фильм не растянут, 1.5 часа пролетают быстро, что говорит уже о чём то, но в его не растянутости проглядывается его не завершенность,pb.wtf





Последний раз редактировалось: GuruBrain (2020-06-16 09:55), всего редактировалось 2 раз(а)

16-06-2020 09:32 Артемис Фаул Скачать торрент  

судя по всему вышесказанному...бюджет= Фаррел+ спецэффекты,
сценарий = детский толераст....
по итогу- детская шляпа... Надо будет глянуть разик для галочки..
Хотя сильно вряд ли. что фильм хотя бы не полный шлакpb.wtf



17-06-2020 08:38 Артемис Фаул Скачать торрент  

мне понравился..хотя больше для детишек..картинка спецэффекты на уровне... вероятно будет продолжение..pb.wtf



27-06-2020 10:51 Артемис Фаул Скачать торрент  

Отличный фильмец, рейтинг занижен. Очень не плохие спецэффекты и игра актеров! pb.wtf



    Дорогой пользователь! Огромная просьба, поблагодарите релизера, оцените раздачу и оставьте свои комментарий, если Вы скачали Артемис Фаул через торрент бесплатно! Внесите свою лепту в развитие PiratBit!
    Комментировать посты могут только пользователи прошедшие не сложную регистрацию
    Показать сообщения:    

    Артемис Фаул через торрент
    Скачать бесплатно Артемис Фаул
    Артемис Фаул скачать торрент
    Артемис Фаул смотреть онлайн
    Cкачать фильм Артемис Фаул бесплатно
    Артемис Фаул скачать торрент в хорошем качестве
    Артемис Фаул смотреть онлайн бесплатно в хорошем качестве


    Вы не можете начинать темы
    Вы не можете отвечать на сообщения
    Вы не можете редактировать свои сообщения
    Вы не можете удалять свои сообщения
    Вы не можете голосовать в опросах
    Вы не можете прикреплять файлы к сообщениям
    Вы можете скачивать файлы