Ссылка на приватное зеркало нашего сайта всего за 1$. Внимание количество ограничено!!!

2 сезон

iTunes

1 сезон

1

2 сезон

2 сезон

iTunes

1 сезон

RePack

30

Новинка

ВАЖНО

ИГРА 18+

pack

RePack

MK11
pack

Забери бонус

RePack

jed

!!Акция!!

Alien_Rage

RePack

fifa19

RePack

Assassins Creed: Odyssey

RePack

NEED FOR SPEED™ PAYBACK

4 сезон

9 сезон

Бесстыжие 9 сезон

Все сериалы

все сериалы на PB.wtf

RePack

FAR CRY 5
  

10 свиданий / 10 Things We Should Do Before We Break Up (Галт Нидерхоффер) [2019, Комедия, мелодрама, WEB-DL 1080p] DUB [IVI] pb.wtf

10 свиданий через торрент pb.wtf

Размер: 3.04 GB | Добавлен: 5 мес. 13 д. назад | Торрент скачан:55 раз
Скачать  

16-06-2020 03:52 10 свиданий Скачать торрент  

10 свиданий | 10 Things We Should Do Before We Break Up
Год выпуска: 2019
Страна: США
Студия: Signature
Жанр: Комедия, мелодрама
Продолжительность: 01:14:01
Перевод: Дублированный | IVI
Субтитры: Английские

Режиссер: Галт Нидерхоффер

rating

В ролях: Кристина Риччи, Хамиш Линклэйтер, Линдси Броад, Миа Синклер Дженнесс, Брэйди Дженнесс, Катя Винтер, Джон Абрахамс, Скотт Эдсит, Кэйтлин Менер, Пенни О’Брайэн

Описание: Эбигейл – мать-одиночка с двумя детьми. Однажды она проводит ночь со случайным парнем по имени Бэн и вскоре узнает, что беременна. Герои решают попробовать быть вместе и построить семью ради ребенка.

Качество: WEB-DL 1080p
Формат: MKV

Видео: MPEG-4 AVC, 4995 Кбит/с, 1920x1080
Аудио#1: Русский (AC3, 6 ch, 384 Кбит/с)
Аудио#2: английский (AC3, 6 ch, 384 Кбит/c)
скриншот  скриншот  скриншот  скриншот  

Общее
Уникальный идентификатор : 214204119161206616120073921775258255383 (0xA12636757F4C9F10ADD6108DE14F4017)
Полное имя : C:\10.Things.We.Should.Do.Before.We.Break.Up.2020.WEB-DL.(1080p).ExKinoRay.mkv
Формат : Matroska
Версия формата : Version 2
Размер файла : 3,04 Гбайт
Продолжительность : 1 ч. 14 м.
Общий поток : 5880 Кбит/сек
Дата кодирования : UTC 2020-06-16 01:03:39
Программа кодирования : mkvmerge v5.8.0 ('No Sleep / Pillow') built on Sep 2 2012 15:37:04
Библиотека кодирования : libebml v1.2.3 + libmatroska v1.3.0

Видео
Идентификатор : 1
Формат : AVC
Формат/Информация : Advanced Video Codec
Профиль формата : High@L4
Настройки формата : CABAC / 4 Ref Frames
Параметр CABAC формата : Да
Параметр RefFrames формата : 4 кадра
Идентификатор кодека : V_MPEG4/ISO/AVC
Продолжительность : 1 ч. 14 м.
Битрейт : 4995 Кбит/сек
Ширина : 1920 пикселей
Высота : 1080 пикселей
Соотношение сторон : 16:9
Режим частоты кадров : Постоянный
Частота кадров : 24,000 кадра/сек
Цветовое пространство : YUV
Субдискретизация насыщенности : 4:2:0
Битовая глубина : 8 бит
Тип развёртки : Прогрессивная
Бит/(Пиксели*Кадры) : 0.100
Размер потока : 2,58 Гбайт (85%)
Язык : English
Default : Да
Forced : Нет

Аудио #1
Идентификатор : 2
Формат : AC-3
Формат/Информация : Audio Coding 3
Коммерческое название : Dolby Digital
Идентификатор кодека : A_AC3
Продолжительность : 1 ч. 14 м.
Вид битрейта : Постоянный
Битрейт : 384 Кбит/сек
Каналы : 6 каналов
ChannelLayout : L R C LFE Ls Rs
Частота : 48,0 КГц
Частота кадров : 31,250 кадров/сек (1536 SPF)
Битовая глубина : 16 бит
Метод сжатия : С потерями
Размер потока : 203 Мбайт (7%)
Язык : Russian
ServiceKind/String : Complete Main
Default : Да
Forced : Нет

Аудио #2
Идентификатор : 3
Формат : AC-3
Формат/Информация : Audio Coding 3
Коммерческое название : Dolby Digital
Идентификатор кодека : A_AC3
Продолжительность : 1 ч. 14 м.
Вид битрейта : Постоянный
Битрейт : 384 Кбит/сек
Каналы : 6 каналов
ChannelLayout : L R C LFE Ls Rs
Частота : 48,0 КГц
Частота кадров : 31,250 кадров/сек (1536 SPF)
Битовая глубина : 16 бит
Метод сжатия : С потерями
Размер потока : 203 Мбайт (7%)
Язык : English
ServiceKind/String : Complete Main
Default : Нет
Forced : Нет

Текст
Идентификатор : 4
Формат : UTF-8
Идентификатор кодека : S_TEXT/UTF8
Идентификатор кодека/Информация : UTF-8 Plain Text
Язык : English
Default : Нет
Forced : Нет

Меню
00:00:00.000 : en:Chapter 1
00:13:02.907 : en:Chapter 2
00:33:48.610 : en:Chapter 3
00:52:02.286 : en:Chapter 4
01:11:37.461 : en:Chapter 5

pb.wtf



Скачать 10 свиданий через торрент https://i112.fastpic.ru/big/2020/0616/4a/3ca867c419fe8a4c3bbcaeb5b765db4a.jpg Скачать фильм 10 свиданий через торрент бесплантно в хорошем качестве Описание: Эбигейл – мать-одиночка с двумя детьми. Однажды она проводит ночь со случайным парнем по имени Бэн и вскоре узнает, что ... 10 10 2
Торрент: Зарегистрирован [2020-06-16 03:52] · скачан: 55 раз
Статус: √ проверено
Размер: 3.04 GB
Как cкачать? Как скачать 10 свиданий через торрент | qTorrent

% Раздел Тема Автор DL S | L
Фильмы 2019-2020 [DVDrip, WEB-DLRip, HDrip] (DUB, MVO) [ 1.42 GB ] 10 свиданий / 10 Things We Should Do Before We Break Up [2019 BDRip] - [IVI] Twi7ter Скачать
11 | 1
Фильмы (Blu-ray, BD-Remux, HDDVD) [ 18.71 GB ] 10 свиданий / 10 Things We Should Do Before We Break Up [2019 BD Remux 1080p] DUB [IVI] bober100 Скачать
1 | 0
Фильмы 2019-2020 [DVDrip, WEB-DLRip, HDrip] (DUB, MVO) [ 1.37 GB ] 10 свиданий / 10 Things We Should Do Before We Break Up [2019 BDRip] DUB [IVI] bober100 Скачать
1 | 0


Последний раз редактировалось: bober100 (2020-06-16 16:16), всего редактировалось 2 раз(а)

28-11-2019 20:33  

Отключить всю рекламу на сайте

16-06-2020 09:31 10 свиданий Скачать торрент  

"Эбигейл – мать-одиночка с двумя детьми. Однажды она проводит ночь со случайным парнем по имени Бэн и вскоре узнает, что беременна."
Читаешь и думаешь- смотреть кино про идиоток, нихрена на своих ошибках не учашихся... Ну такое себе....pb.wtf



16-06-2020 11:30 10 свиданий Скачать торрент  

Коммент выше от получателя аттестата задаром.
Мать-одиночка осознанно заводит третьего в соответствии с планом по выживанию.pb.wtf



    Дорогой пользователь! Огромная просьба, поблагодарите релизера, оцените раздачу и оставьте свои комментарий, если Вы скачали 10 свиданий через торрент бесплатно! Внесите свою лепту в развитие PiratBit!
    Комментировать посты могут только пользователи прошедшие не сложную регистрацию
    Показать сообщения:    

    10 свиданий через торрент
    Скачать бесплатно 10 свиданий
    10 свиданий скачать торрент
    10 свиданий смотреть онлайн
    Cкачать фильм 10 свиданий бесплатно
    10 свиданий скачать торрент в хорошем качестве
    10 свиданий смотреть онлайн бесплатно в хорошем качестве


    Вы не можете начинать темы
    Вы не можете отвечать на сообщения
    Вы не можете редактировать свои сообщения
    Вы не можете удалять свои сообщения
    Вы не можете голосовать в опросах
    Вы не можете прикреплять файлы к сообщениям
    Вы можете скачивать файлы