Ссылка на приватное зеркало нашего сайта всего за 1$. Внимание количество ограничено!!!

2 сезон

iTunes

1 сезон

1

2 сезон

2 сезон

iTunes

1 сезон

RePack

30

Новинка

ВАЖНО

ИГРА 18+

pack

RePack

MK11
pack

Забери бонус

RePack

jed

!!Акция!!

Alien_Rage

RePack

fifa19

RePack

Assassins Creed: Odyssey

RePack

NEED FOR SPEED™ PAYBACK

4 сезон

9 сезон

Бесстыжие 9 сезон

Все сериалы

все сериалы на PB.wtf

RePack

FAR CRY 5
  

Пятеро одной крови / Da 5 Bloods (Спайк Ли) [2020, драма, военный, WEBRip 720p] [MVO] (HDRezka Studio) pb.wtf

Пятеро одной крови через торрент pb.wtf

Размер: 10.27 GB | Добавлен: 5 мес. 16 д. назад | Торрент скачан:61 раз
Скачать  

16-06-2020 05:38 Пятеро одной крови Скачать торрент  

Пятеро одной крови / Da 5 Bloods
Год выпуска: 2020
Страна: США
Жанр: драма, военный
Продолжительность: 02:35:52
Перевод: Профессиональный (многоголосый закадровый) *HDRezka Studio*
Субтитры: русские (forced)

Режиссер: Спайк Ли / Spike Lee
В ролях: Делрой Линдо, Джонатан Мэйджерс, Кларк Питерс, Норм Льюис, Исайя Уитлок мл., Мелани Тьерри, Пол Уолтер Хаузер, Яспер Пяякконен, Джонни Нгуйен, Й. Лан
Описание: Ветераны войны во Вьетнаме возвращаются в далёкие джунгли, чтобы вновь обрести себя. Оказавшись в знакомой среде, где много лет назад им грозила постоянная опасность, они надеются спасти своего сбившегося с пути товарища.
rating

Качество видео: WEBRip 720p
Формат видео: MKV
Видео: AVC, 1280x720, 24.000 fps, ~8 787 kb/s
Аудио: 48 kHz, AC3 Dolby Digital, 3/2 (L,C,R,l,r) + LFE ch, ~448 kbps
General
Unique ID : 78314231950569478964777783416965240272 (0x3AEAC5BE880BF3F56BA5DF9124B715D0)
Complete name : G:\Da.5.Bloods.2020.WEBRip.720p.rus.5.1.HDREZKA.STUDIO.mkv
Format : Matroska
Format version : Version 4
File size : 10.3 GiB
Duration : 2 h 36 min
Overall bit rate mode : Variable
Overall bit rate : 9 422 kb/s
Encoded date : UTC 2020-06-16 00:50:36
Writing application : mkvmerge v28.2.0 ('The Awakening') 64-bit
Writing library : libebml v1.3.6 + libmatroska v1.4.9

Video
ID : 1
Format : AVC
Format/Info : Advanced Video Codec
Format profile : High@L4.1
Format settings : CABAC / 1 Ref Frames
Format settings, CABAC : Yes
Format settings, Reference : 1 frame
Codec ID : V_MPEG4/ISO/AVC
Duration : 2 h 36 min
Bit rate mode : Variable
Bit rate : 8 787 kb/s
Maximum bit rate : 2 000 kb/s
Width : 1 280 pixels
Height : 720 pixels
Display aspect ratio : 16:9
Frame rate mode : Constant
Frame rate : 24.000 FPS
Color space : YUV
Chroma subsampling : 4:2:0
Bit depth : 8 bits
Scan type : Progressive
Bits/(Pixel*Frame) : 0.397
Stream size : 9.58 GiB (93%)
Default : Yes
Forced : No
Duration_Source : General_Duration

Audio
ID : 2
Format : AC-3
Format/Info : Audio Coding 3
Commercial name : Dolby Digital
Codec ID : A_AC3
Duration : 2 h 36 min
Bit rate mode : Constant
Bit rate : 448 kb/s
Channel(s) : 6 channels
Channel layout : L R C LFE Ls Rs
Sampling rate : 48.0 kHz
Frame rate : 31.250 FPS (1536 SPF)
Compression mode : Lossy
Stream size : 500 MiB (5%)
Language : Russian
Service kind : Complete Main
Default : Yes
Forced : No
Duration_Source : General_Duration
скриншот   скриншот   скриншот  
pb.wtf



Скачать Пятеро одной крови через торрент https://i112.fastpic.ru/big/2020/0616/c5/a8ab6b94ebe8174e89d7eac7693fb7c5.jpeg Скачать фильм Пятеро одной крови через торрент бесплантно в хорошем качестве Описание: Ветераны войны во Вьетнаме возвращаются в далёкие джунгли, чтобы вновь обрести себя. Оказавшись в знакомой среде, где много лет ... 10 10 4
Торрент: Зарегистрирован [2020-06-16 05:38] · скачан: 61 раз
Статус: √ проверено
Размер: 10.27 GB
Как cкачать? Как скачать Пятеро одной крови через торрент | qTorrent

% Раздел Тема Автор DL S | L
Фильмы (WEB-DL 720p, 1080p) [ 14.58 GB ] Пятеро одной крови / Da 5 Bloods [2020 военный WEBRip 1080p] MVO [HDRezka Studio] bober100 Скачать
2 | 0
Фильмы без перевода [ 2.18 GB ] Пятеро одной крови / Da 5 Bloods [2020 военный WEB-DLRip] 2x[Sub] killermax2013 Скачать
1 | 0

28-11-2019 20:33  

Отключить всю рекламу на сайте

20-06-2020 17:12 Пятеро одной крови Скачать торрент  

по мне так-жуткая нудятина.еле досмотрел на перемотке. pb.wtf



    Дорогой пользователь! Огромная просьба, поблагодарите релизера, оцените раздачу и оставьте свои комментарий, если Вы скачали Пятеро одной крови через торрент бесплатно! Внесите свою лепту в развитие PiratBit!
    Комментировать посты могут только пользователи прошедшие не сложную регистрацию
    Показать сообщения:    

    Пятеро одной крови через торрент
    Скачать бесплатно Пятеро одной крови
    Пятеро одной крови скачать торрент
    Пятеро одной крови смотреть онлайн
    Cкачать фильм Пятеро одной крови бесплатно
    Пятеро одной крови скачать торрент в хорошем качестве
    Пятеро одной крови смотреть онлайн бесплатно в хорошем качестве


    Вы не можете начинать темы
    Вы не можете отвечать на сообщения
    Вы не можете редактировать свои сообщения
    Вы не можете удалять свои сообщения
    Вы не можете голосовать в опросах
    Вы не можете прикреплять файлы к сообщениям
    Вы можете скачивать файлы