Ссылка на приватное зеркало нашего сайта всего за 1$. Внимание количество ограничено!!!

2 сезон

iTunes

1 сезон

1

iTunes

iTunes

iTunes

1 сезон

RePack

30

ИГРА 18+

pack

ВАЖНО

!!Акция!!

Alien_RageХит недели

RePack

MK11
pack

Забери бонус

RePack

jed

!!Акция!!

Alien_Rage

RePack

fifa19

RePack

Assassins Creed: Odyssey

RePack

NEED FOR SPEED™ PAYBACK

4 сезон

9 сезон

Бесстыжие 9 сезон

Все сериалы

все сериалы на PB.wtf

RePack

FAR CRY 5
  

Герой по вызову / Сезон: 1 / Серии: 1-10 из 10 (Анна Зайцева) [2020, Детектив, WEBRip] pb.wtf

Герой по вызову через торрент pb.wtf

Раздают: 3 [ 281 KB/s ]
Размер: 5.84 GB | Добавлен: 4 мес. 7 д. назад | Торрент скачан:183 раза
Скачать  

16-06-2020 06:52 Герой по вызову Скачать торрент  

Герой по вызову
Год выпуска: 2020
Страна: Россия
Жанр: Детектив
Продолжительность: ~ 00:49:00
Субтитры: отсутствуют

Режиссер: Анна Зайцева



В ролях: Евгений Миллер, Кристина Асмус, Николай Клямчук, Марина Калецкая, Владимир Виноградов, Юрий Николаенко, Михаил Евланов, Алексей Федькин, Олег Тактаров, Константин Тополага, Ирина Вербицкая, Константин Соловьёв, Наталия Лесниковская, Никита Тезов, Константин Быков, Даниил Кокин, Татьяна Ястребова

Описание: Иван Лутошин, врач по профессии и неудачник по жизни, узнает, что у него неоперабельная опухоль мозга. Он не хочет ждать мучительного конца и решает покончить жизнь самоубийством: напившись, он выходит на скоростную трассу и встаёт на полосе. Случайный знакомый – оперуполномоченный полиции Илья Туманов – спасает Лутошину жизнь и предлагает ему помощь, а именно – неофициальное участие в смертельно опасных операциях по поимке бандитов: если убьют – хотя бы не напрасно. Помогая Туманову Лутошин знакомится со следователем СК Елизаветой Леоновой и вызывает у неё живой интерес, перетекающий в симпатию – ей импонирует его безрассудность и отвага. Спустя некоторое время, Лутошин вновь проходит медицинское обследование, на котором выясняется, что опухоль замедлила рост. Он делает любопытный вывод: опухоль перестаёт расти, как только возникает реальная угроза жизни, связанная с помощью попавшим в беду людям. И теперь, чтобы выжить, ему нужно постоянно совершать настоящие подвиги.

Качество: WEBRip
Формат: AVI

Видео: XviD, ~ 1600 Кбит/с, 720x400, 25 кадр/с
Аудио: 48.0 kHz, AC3 Dolby Digital, 2/0 (L,R) ch, ~ 192 kbps
скриншот  скриншот  скриншот  скриншот  скриншот  

General
Complete name : H:\fiiles x\Герой по вызову.2020. WEB-DLRip.Files-x\01. Герой по вызову.2020. WEB-DLRip.Files-x.avi
Format : AVI
Format/Info : Audio Video Interleave
File size : 616 MiB
Duration : 47mn 49s
Overall bit rate : 1 802 Kbps
Writing application : VirtualDubMod 1.5.10.3 | www.virtualdub-fr.org || (build 2550/release)
Writing library : VirtualDubMod build 2550/release

Video
ID : 0
Format : MPEG-4 Visual
Format profile : Advanced Simple@L5
Format settings, BVOP : 1
Format settings, QPel : No
Format settings, GMC : No warppoints
Format settings, Matrix : Custom
Codec ID : XVID
Codec ID/Hint : XviD
Duration : 47mn 49s
Bit rate : 1 600 Kbps
Width : 720 pixels
Height : 400 pixels
Display aspect ratio : 16:9
Frame rate : 25.000 fps
Color space : YUV
Chroma subsampling : 4:2:0
Bit depth : 8 bits
Scan type : Progressive
Compression mode : Lossy
Bits/(Pixel*Frame) : 0.222
Stream size : 547 MiB (89%)
Writing library : XviD 73

Audio
ID : 1
Format : AC-3
Format/Info : Audio Coding 3
Mode extension : CM (complete main)
Codec ID : 2000
Duration : 47mn 49s
Bit rate mode : Constant
Bit rate : 192 Kbps
Channel(s) : 2 channels
Channel positions : Front: L R
Sampling rate : 48.0 KHz
Bit depth : 16 bits
Compression mode : Lossy
Stream size : 65.7 MiB (11%)
Alignment : Split accross interleaves
Interleave, duration : 40 ms (1.00 video frame)
Interleave, preload duration : 500 ms

Когда раздача ведётся путём добавления новых серий, при каждом добавлении создётся новый торрент. Чтобы начать докачку новой серии, пользователям необходимо сделать следующее:
(1) остановить скачивание,
(2) удалить старый торрент у себя из клиента (старые серии удалять не надо),
(3) скачать новый торрент и запустить его у себя в клиенте вместо старого, при этом указать клиенту путь в старую папку, куда и должно происходить скачивание новых серий.
Ваш клиент при этом должен произвести хеширование (проверку) старой папки (если не производит сам - помогите ему сделать это), и будет докачивать только те серии, которых у вас ещё нет. Старые серии при этом не удаляются, а продолжают раздаваться!
Eсли вы уже удалили старые серии, то предотвратить повторную закачку старых серий можно, отжав галочку в соответсвующих местах при запуске нового торрента. По возможности, желательно не удалять старые серии как можно дольше, чтобы релизер не столько продолжал раздавать старые серии, а смог сконцентрироваться на новых.
pb.wtf



Скачать Герой по вызову через торрент http://pic1.kartinco.top/images/12/dixwo.jpg Скачать фильм Герой по вызову через торрент бесплантно в хорошем качестве Описание: Иван Лутошин, врач по профессии и неудачник по жизни, узнает, что у него неоперабельная опухоль мозга. Он не хочет ждать ... 10 10 8
Торрент: Зарегистрирован [2020-06-19 23:57] · скачан: 183 раз
Статус: √ проверено
Размер: 5.84 GB
Как cкачать? Как скачать Герой по вызову через торрент | qTorrent

% Раздел Тема Автор DL S | L
Наши сериалы [ 5.93 GB ] Герой по вызову / Сезон: 1 / Серии: 1-10 из 10 [2020 SATRip] bober100 Скачать
1 | 0
Наши сериалы [ 11.97 GB ] Герой по вызову / Сезон: 1 / Серии: 1-10 из 10 [2020 WEBRip 720p] bober100 Скачать
2 | 0
Наши сериалы [ 19.94 GB ] Герой по вызову / Сезон: 1 / Серии: 1-10 из 10 [2020 WEBRip 1080p] bober100 Скачать
4 | 0
Наши сериалы [ 7.12 GB ] Герой по вызову / Сезон: 1 / Серии: 1-10 из 10 [2020 WEBRip-AVC] bober100 Скачать
2 | 0

28-11-2019 20:33  

Отключить всю рекламу на сайте

    Дорогой пользователь! Огромная просьба, поблагодарите релизера, оцените раздачу и оставьте свои комментарий, если Вы скачали Герой по вызову через торрент бесплатно! Внесите свою лепту в развитие PiratBit!
    Комментировать посты могут только пользователи прошедшие не сложную регистрацию
    Показать сообщения:    

    Герой по вызову через торрент
    Скачать бесплатно Герой по вызову
    Герой по вызову скачать торрент
    Герой по вызову смотреть онлайн
    Cкачать фильм Герой по вызову бесплатно
    Герой по вызову скачать торрент в хорошем качестве
    Герой по вызову смотреть онлайн бесплатно в хорошем качестве


    Вы не можете начинать темы
    Вы не можете отвечать на сообщения
    Вы не можете редактировать свои сообщения
    Вы не можете удалять свои сообщения
    Вы не можете голосовать в опросах
    Вы не можете прикреплять файлы к сообщениям
    Вы можете скачивать файлы