2 сезон

iTunes

MVO

1

2 сезон

iTunes

iTunes

1 сезон

RePack

30

Новинка

ВАЖНО

ИГРА 18+

pack

RePack

MK11
pack

Легкие деньги

RePack

jed

RePack

fifa19

RePack

RDR2

RePack

NEED FOR SPEED™ PAYBACK

4 сезон

9 сезон

Бесстыжие 9 сезон

Все сериалы

все сериалы на PB.wtf

RePack

FAR CRY 5

Anonymous, доброе утро, мы не успеваем собрать деньги на оплату серверов за декабрь и январь, помогите нам пожалуйста в это трудное время. В качестве благодарности мы отключим Вам всю рекламу на сайте (укажите свой ник в строку Ваше имя)!

×
  
Magnet ссылка

Большая прогулка / La grande vadrouille (Жерар Ури) [1966, Комедия, Приключения, Военный, BDRip 720p / 60 FPS, Дубляж] pb.wtf

Большая прогулка через торрент pb.wtf

Размер: 3.63 GB | Добавлен: 7 мес. назад | Торрент скачан:61 раз
Скачать  

16-06-2020 12:19 Большая прогулка Скачать торрент  

Большая прогулка / La grande vadrouille
Год выпуска: 1966
Страна: Франция, Великобритания
Жанр: Комедия, Приключения, Военный
Продолжительность: 02:03:47
Перевод: Дубляж
Субтитры: русские, английские

Режиссер: Жерар Ури

Премьера в мире: 8 декабря 1966

rating

В ролях: Луи де Фюнес, Бурвиль, Клаудио Брук, Андреа Паризи, Колетт Броссе, Майк Маршалл, Мари Марке, Пьер Бертен, Бенно Штерценбах, Мари Дюбуа, Терри-Томас, Поль Пребуа, Ги Гроссо, Жан Дроз

Роли дублировали: Владимир Кенигсон , Андрей Попов,Степан Бубнов , Алексей Полевой , Серафима Холина.

Описание: Небо над Парижем, 1942 год. Английский бомбардировщик, выполняющий важное задание, подбит немцами. Летчики покидают горящую машину, договариваясь встретиться через некоторое время в турецкой бане. Один из них приземляется на крыше дома, где работает парижский маляр Огюстен Буве.
Другой падает на крышу Гранд-Опера и прячется вместе с парашютом в апартаментах главного дирижера. А командир экипажа сэр Реджинальд «приводняется» в зоопарке - в пруду с тюленями. И как только англичане попадают в Париж, начинаются совершенно невероятные приключения…

Качество: BDRip 720p / 60 FPS
Формат: MKV
Видео кодек: H.264
Аудио кодек: AC3
Видео: x264, 1280 x 544 ( 2,35:1 ), 4000 kbps, 59,940 fps, ( 0.096 bpp)
Аудио#1: Русский, AC-3, 48.0 KHz, 2 ch, 192 Kbps
скриншот   скриншот   скриншот   скриншот   скриншот  

Общее
Уникальный идентификатор : 186196126670477817285572342310669746386 (0x8C1411D08AEEF9679E4C2D89195980D2)
Полное имя : Z:\На заливку\Большая Прогулка.1966.BDRip.720p.(60Fps).mkv
Формат : Matroska
Версия формата : Version 4
Размер файла : 3,63 Гбайт
Продолжительность : 2 ч. 3 м.
Общий поток : 4 196 Кбит/сек
Название фильма : Большая Прогулка.1966.BDRip.720p.(60Fps)
Дата кодирования : UTC 2020-05-14 14:59:11
Программа кодирования : mkvmerge v7.2.0 ('On Every Street') 64bit built on Sep 13 2014 15:52:10
Библиотека кодирования : libebml v1.3.0 + libmatroska v1.4.1
Attachments : TCCEB.TTF

Видео
Идентификатор : 1
Формат : AVC
Формат/Информация : Advanced Video Codec
Профиль формата : High@L4.1
Настройки формата : CABAC / 8 Ref Frames
Параметр CABAC формата : Да
Параметр RefFrames формата : 8 кадров
Идентификатор кодека : V_MPEG4/ISO/AVC
Продолжительность : 2 ч. 3 м.
Битрейт : 4 000 Кбит/сек
Ширина : 1 280 пикселей
Высота : 544 пикселя
Соотношение сторон : 2,35:1
Режим частоты кадров : Постоянный
Частота кадров : 59,940 кадров/сек
Цветовое пространство : YUV
Субдискретизация насыщенности : 4:2:0
Битовая глубина : 8 бит
Тип развёртки : Прогрессивная
Бит/(Пиксели*Кадры) : 0.096
Размер потока : 3,46 Гбайт (95%)
Библиотека кодирования : x264 core 148 r2638 7599210
Настройки программы : cabac=1 / ref=8 / deblock=1:0:0 / analyse=0x3:0x113 / me=umh / subme=9 / psy=1 / psy_rd=1.00:0.10 / mixed_ref=1 / me_range=32 / chroma_me=1 / trellis=2 / 8x8dct=1 / cqm=0 / deadzone=21,11 / fast_pskip=0 / chroma_qp_offset=-3 / threads=6 / lookahead_threads=1 / sliced_threads=0 / nr=0 / decimate=1 / interlaced=0 / bluray_compat=0 / constrained_intra=0 / bframes=16 / b_pyramid=2 / b_adapt=2 / b_bias=0 / direct=3 / weightb=1 / open_gop=0 / weightp=2 / keyint=250 / keyint_min=25 / scenecut=40 / intra_refresh=0 / rc_lookahead=40 / rc=2pass / mbtree=1 / bitrate=4000 / ratetol=1.0 / qcomp=0.60 / qpmin=0 / qpmax=69 / qpstep=4 / cplxblur=20.0 / qblur=0.5 / vbv_maxrate=14000 / vbv_bufsize=14000 / nal_hrd=none / filler=0 / ip_ratio=1.40 / aq=1:1.00
Язык : English
Default : Да
Forced : Нет

Аудио
Идентификатор : 2
Формат : AC-3
Формат/Информация : Audio Coding 3
Коммерческое название : Dolby Digital
Идентификатор кодека : A_AC3
Продолжительность : 2 ч. 3 м.
Вид битрейта : Постоянный
Битрейт : 192 Кбит/сек
Каналы : 2 канала
Channel layout : L R
Частота : 48,0 КГц
Частота кадров : 31,250 кадров/сек (1536 SPF)
Метод сжатия : С потерями
Размер потока : 170 Мбайт (5%)
Заголовок : AC3 2.0 192 Kbps
Язык : Russian
Service kind : Complete Main
Default : Да
Forced : Нет

Текст #1
Идентификатор : 3
Формат : UTF-8
Идентификатор кодека : S_TEXT/UTF8
Идентификатор кодека/Информация : UTF-8 Plain Text
Продолжительность : 2 ч. 1 м.
Битрейт : 53 бит/сек
Count of elements : 891
Размер потока : 47,4 Кбайт (0%)
Язык : Russian
Default : Да
Forced : Нет

Текст #2
Идентификатор : 4
Формат : ASS
Идентификатор кодека : S_TEXT/ASS
Идентификатор кодека/Информация : Advanced Sub Station Alpha
Продолжительность : 2 ч. 1 м.
Битрейт : 51 бит/сек
Count of elements : 774
Метод сжатия : Без потерь
Размер потока : 46,3 Кбайт (0%)
Язык : English
Default : Нет
Forced : Нет

pb.wtf



Скачать Большая прогулка через торрент http://pic1.kartinco.top/images/12/a8hx3.jpg Скачать фильм Большая прогулка через торрент бесплантно в хорошем качестве Описание: Небо над Парижем, 1942 год. Английский бомбардировщик, выполняющий важное задание, подбит немцами. Летчики покидают горящую ... 10 10 7
Торрент: Зарегистрирован [2020-06-16 12:19] · скачан: 61 раз
Статус: √ проверено
Размер: 3.63 GB
Как cкачать? Как скачать Большая прогулка через торрент | UTorrent

% Раздел Тема Автор DL S | L
Классика зарубежного кино [ 1.45 GB ] Большая прогулка / La Grande Vadrouille [1966 BDRip-AVC] Dub + Subs dexter lex Скачать
1 | 0
Классика зарубежного кино [ 1.46 GB ] Большая прогулка / La Grande Vadrouille [1966 HDRip] Dub Советский dexter lex Скачать
1 | 0
Классика зарубежного кино [ 968 MB ] Большая прогулка / La Grande vadrouille [1966 Военный DVDRip MVO] GOLD_Alex Скачать
1 | 0
Фильмы до 2000 г. [ 1.46 GB ] Большая прогулка / La grande vadrouille [1966 военный HDRip] spaMER1992 Скачать
1 | 0

28-11-2019 20:33  

Отключить всю рекламу на сайте

    Дорогой пользователь! Огромная просьба, поблагодарите релизера, оцените раздачу и оставьте свои комментарий, если Вы скачали Большая прогулка через торрент бесплатно! Внесите свою лепту в развитие PiratBit!
    Комментировать посты могут только пользователи прошедшие не сложную регистрацию
    Показать сообщения:    

    Большая прогулка через торрент
    Скачать бесплатно Большая прогулка
    Большая прогулка скачать торрент
    Большая прогулка смотреть онлайн
    Cкачать фильм Большая прогулка бесплатно
    Большая прогулка скачать торрент в хорошем качестве
    Большая прогулка смотреть онлайн бесплатно в хорошем качестве


    Вы не можете начинать темы
    Вы не можете отвечать на сообщения
    Вы не можете редактировать свои сообщения
    Вы не можете удалять свои сообщения
    Вы не можете голосовать в опросах
    Вы не можете прикреплять файлы к сообщениям
    Вы можете скачивать файлы