Ссылка на приватное зеркало нашего сайта всего за 1$. Внимание количество ограничено!!!

2 сезон

iTunes

1 сезон

1

2 сезон

2 сезон

iTunes

1 сезон

RePack

30

Ultimate

ВАЖНО

ИГРА 18+

pack

RePack

MK11
pack

Забери бонус

RePack

jed

!!Акция!!

Alien_Rage

RePack

fifa19

RePack

Assassins Creed: Odyssey

RePack

NEED FOR SPEED™ PAYBACK

4 сезон

9 сезон

Бесстыжие 9 сезон

Все сериалы

все сериалы на PB.wtf

RePack

FAR CRY 5
  

Рабство / Trade (Марко Кройцпайнтнер) [2007, триллер, драма, криминал, WEB-DL 1080p] 2xMVO - KORSAR pb.wtf

Рабство через торрент pb.wtf

Размер: 11.81 GB | Добавлен: 5 мес. 17 д. назад | Торрент скачан:75 раз
Скачать  

16-06-2020 13:14 Рабство Скачать торрент  

Рабство / Trade
Год выпуска: 2007
Страна: Германия , США , Мексика
Жанр: Триллер, драма, криминал
Продолжительность: 01:59:47
Перевод: Профессиональный многоголосый
Субтитры: Русские, английские
Режиссёр: Марко Кройцпайнтнер
В ролях: Кевин Клайн, Сесар Рамос, Алиция Бахледа, Паулина Гайтан, Марко Перес, Линда Эмонд, Зак Уорд, Кейт дель Кастильо, Тим Рейд, Павел Лычников, Наталия Травен, Гильермо Иван, Кристиан Васкес, Хосе Сефами, Лелэнд Паскуаль, Кэтлин Гати, Уильям Стерчи
Описание: В Мехико группа преступников похищает 13-летнюю девочку Адриану для продажи в сексуальное рабство. Одновременно с похищением Адрианы в Мексику прибывают молодые девушки, которые приехали якобы по набору в модельное агентство. Прямо в здании аэропорта у них отбирают документы и увозят для продажи в сексуальное рабство. 17-летний брат Хорхе начинает поиски сестры Адрианы. Юноша решает бросить вызов обстоятельствам, но он оказывается не одинок в своем горе, на помощь ему приходит полицейский Рэй, у которого подобным же образом украли молодую дочь. Вместе они пытаются противостоять преступному бизнесу и вызволить девушек из страшного и порочного плена.

rating

Качество: WEB-DL 1080p
Формат: MKV
Видео: MPEG-4 AVC, 1920x816 (2.35:1), 12300 kbps, 23.976 fps
Аудио 1: Russian: 48 kHz, AC3, 5.1 ch, 448 kbps - MVO, R5
Аудио 2: Russian: 48 kHz, AC3, 5.1 ch, 448 kbps - MVO, Первый Канал
Аудио 3: English: 48 kHz, EAC3, 5.1 ch, 640 kbps - Оригинал

Релиз от:


• Местами присутствует английский хардсаб (диалоги на испанском, русском)
Общее
Уникальный идентификатор : 200726742633371510123218828013964732990 (0x9702907E554E2E5E8B5F8239C211AA3E)
Полное имя : Рабство.2007.AMZN.WEB-DL.1080p.KORSAR.mkv
Формат : Matroska
Версия формата : Version 2
Размер файла : 11,8 Гбайт
Продолжительность : 1 ч. 59 м.
Режим общего битрейта : Переменный
Общий поток : 14,1 Мбит/сек
Дата кодирования : UTC 2020-06-12 13:22:23
Программа кодирования : mkvmerge v5.8.0 ('No Sleep / Pillow') built on Sep 2 2012 15:37:04
Библиотека кодирования : libebml v1.2.3 + libmatroska v1.3.0

Видео
Идентификатор : 1
Формат : AVC
Формат/Информация : Advanced Video Codec
Профиль формата : High@L4
Параметр CABAC формата : Да
Параметр RefFrames формата : 4 кадра
Идентификатор кодека : V_MPEG4/ISO/AVC
Продолжительность : 1 ч. 59 м.
Вид битрейта : Переменный
Битрейт : 12,3 Мбит/сек
Максимальный битрейт : 15,0 Мбит/сек
Ширина : 1920 пикселей
Высота : 816 пикселей
Соотношение сторон : 2,35:1
Режим частоты кадров : Постоянный
Частота кадров : 23,976 (24000/1001) кадра/сек
Цветовое пространство : YUV
Субдискретизация насыщенности : 4:2:0
Битовая глубина : 8 бит
Тип развёртки : Прогрессивная
Бит/(Пиксели*Кадры) : 0.327
Размер потока : 10,3 Гбайт (87%)
Язык : English
Default : Да
Forced : Нет
Цветовой диапазон : Limited
Основные цвета : BT.709
Характеристики трансфера : BT.709
Коэффициенты матрицы : BT.709

Аудио #1
Идентификатор : 2
Формат : AC-3
Формат/Информация : Audio Coding 3
Параметр Endianness формата : Big
Идентификатор кодека : A_AC3
Продолжительность : 1 ч. 59 м.
Вид битрейта : Постоянный
Битрейт : 448 Кбит/сек
Каналы : 6 каналов
Расположение каналов : Front: L C R, Side: L R, LFE
Частота : 48,0 КГц
Частота кадров : 31,250 кадров/сек (1536 SPF)
Битовая глубина : 16 бит
Метод сжатия : С потерями
Размер потока : 384 Мбайт (3%)
Заголовок : MVO | R5
Язык : Russian
Default : Да
Forced : Нет

Аудио #2
Идентификатор : 3
Формат : AC-3
Формат/Информация : Audio Coding 3
Параметр Endianness формата : Big
Идентификатор кодека : A_AC3
Продолжительность : 1 ч. 59 м.
Вид битрейта : Постоянный
Битрейт : 448 Кбит/сек
Каналы : 6 каналов
Расположение каналов : Front: L C R, Side: L R, LFE
Частота : 48,0 КГц
Частота кадров : 31,250 кадров/сек (1536 SPF)
Битовая глубина : 16 бит
Метод сжатия : С потерями
Размер потока : 384 Мбайт (3%)
Заголовок : MVO | Первый Канал
Язык : Russian
Default : Нет
Forced : Нет

Аудио #3
Идентификатор : 4
Формат : E-AC-3
Формат/Информация : Enhanced Audio Coding 3
Параметр Endianness формата : Big
Идентификатор кодека : A_EAC3
Продолжительность : 1 ч. 59 м.
Вид битрейта : Постоянный
Битрейт : 640 Кбит/сек
Каналы : 6 каналов
Расположение каналов : Front: L C R, Side: L R, LFE
Частота : 48,0 КГц
Частота кадров : 187,500 кадров/сек (256 SPF)
Метод сжатия : С потерями
Размер потока : 548 Мбайт (5%)
Заголовок : Оригинал
Язык : English
Default : Нет
Forced : Нет

Текст #1
Идентификатор : 5
Формат : UTF-8
Идентификатор кодека : S_TEXT/UTF8
Идентификатор кодека/Информация : UTF-8 Plain Text
Заголовок : Full
Язык : Russian
Default : Нет
Forced : Нет

Текст #2
Идентификатор : 6
Формат : UTF-8
Идентификатор кодека : S_TEXT/UTF8
Идентификатор кодека/Информация : UTF-8 Plain Text
Заголовок : SDH
Язык : English
Default : Нет
Forced : Нет

Меню
00:00:00.000 : en:1
00:09:02.000 : en:2
00:17:50.000 : en:3
00:26:38.000 : en:4
00:34:03.000 : en:5
00:43:18.000 : en:6
00:53:22.000 : en:7
01:02:07.000 : en:8
01:10:07.000 : en:9
01:19:27.000 : en:10
01:29:18.000 : en:11
01:37:53.000 : en:12
01:46:51.000 : en:13
01:54:32.000 : en:14
pb.wtf



Скачать Рабство через торрент https://i4.imageban.ru/out/2020/06/16/09b63e71c102ce649efa2c5e5ceebd6a.png Скачать фильм Рабство через торрент бесплантно в хорошем качестве Описание: В Мехико группа преступников похищает 13-летнюю девочку Адриану для продажи в сексуальное рабство. Одновременно с похищением ... 5.5 10 4
Info! Золотая раздача, скачанное не засчитывается.
Торрент: Зарегистрирован [2020-06-16 13:14] · скачан: 75 раз
Статус: √ проверено
Размер: 11.81 GB
Как cкачать? Как скачать Рабство через торрент | qTorrent

28-11-2019 20:33  

Отключить всю рекламу на сайте

    Дорогой пользователь! Огромная просьба, поблагодарите релизера, оцените раздачу и оставьте свои комментарий, если Вы скачали Рабство через торрент бесплатно! Внесите свою лепту в развитие PiratBit!
    Комментировать посты могут только пользователи прошедшие не сложную регистрацию
    Показать сообщения:    

    Рабство через торрент
    Скачать бесплатно Рабство
    Рабство скачать торрент
    Рабство смотреть онлайн
    Cкачать фильм Рабство бесплатно
    Рабство скачать торрент в хорошем качестве
    Рабство смотреть онлайн бесплатно в хорошем качестве


    Вы не можете начинать темы
    Вы не можете отвечать на сообщения
    Вы не можете редактировать свои сообщения
    Вы не можете удалять свои сообщения
    Вы не можете голосовать в опросах
    Вы не можете прикреплять файлы к сообщениям
    Вы можете скачивать файлы