Ссылка на приватное зеркало нашего сайта всего за 1$. Внимание количество ограничено!!!

2 сезон

iTunes

1 сезон

1

iTunes

iTunes

iTunes

1 сезон

RePack

30

ИГРА 18+

pack

ВАЖНО

!!Акция!!

Alien_RageХит недели

RePack

MK11
pack

Забери бонус

RePack

jed

!!Акция!!

Alien_Rage

RePack

fifa19

RePack

Assassins Creed: Odyssey

RePack

NEED FOR SPEED™ PAYBACK

4 сезон

9 сезон

Бесстыжие 9 сезон

Все сериалы

все сериалы на PB.wtf

RePack

FAR CRY 5
  

Герой по вызову / Сезон: 1 / Серии: 1-10 из 10 (Анна Зайцева) [2020, Детектив, WEBRip 1080p] pb.wtf

Герой по вызову через торрент pb.wtf

Раздают: 2 [ 2 KB/s ]
Размер: 19.94 GB | Добавлен: 4 мес. назад | Торрент скачан:132 раза
Скачать  

16-06-2020 13:15 Герой по вызову Скачать торрент  

Герой по вызову
Год выпуска: 2020
Страна: Россия
Студия: РИМ ПРОДАКШН
Жанр: Детектив
Продолжительность: ~ 00:49:00
Субтитры: отсутствуют

Режиссер: Анна Зайцева



В ролях: Евгений Миллер, Кристина Асмус, Николай Клямчук, Марина Калецкая, Владимир Виноградов, Юрий Николаенко, Михаил Евланов, Алексей Федькин, Олег Тактаров, Константин Тополага, Ирина Вербицкая, Константин Соловьёв, Наталия Лесниковская, Никита Тезов, Константин Быков, Даниил Кокин, Татьяна Ястребова

Описание: Иван Лутошин, врач по профессии и неудачник по жизни, узнает, что у него неоперабельная опухоль мозга. Он не хочет ждать мучительного конца и решает покончить жизнь самоубийством: напившись, он выходит на скоростную трассу и встаёт на полосе. Случайный знакомый – оперуполномоченный полиции Илья Туманов – спасает Лутошину жизнь и предлагает ему помощь, а именно – неофициальное участие в смертельно опасных операциях по поимке бандитов: если убьют – хотя бы не напрасно. Помогая Туманову Лутошин знакомится со следователем СК Елизаветой Леоновой и вызывает у неё живой интерес, перетекающий в симпатию – ей импонирует его безрассудность и отвага. Спустя некоторое время, Лутошин вновь проходит медицинское обследование, на котором выясняется, что опухоль замедлила рост. Он делает любопытный вывод: опухоль перестаёт расти, как только возникает реальная угроза жизни, связанная с помощью попавшим в беду людям. И теперь, чтобы выжить, ему нужно постоянно совершать настоящие подвиги.

Качество: WEBRip 1080p
Формат: MKV

Видео: 1920х1080 (16:9), 25 fps, AVC MPEG-4 (x264), High@L4.1 ~ 6000 kbps avg, 0.116 bit/pixel
Аудио: 48.0 kHz, AC3 Dolby Digital, 2/0 (L,R) ch, ~ 192 kbps
скриншот  скриншот  скриншот  скриншот  

Общее
Уникальный идентификатор : 196437030517773359812328963883224433293 (0x93C8655B692D8F139854BF87FC16828D)
Полное имя : C:\Geroj.po.vyzovu.2019.WEB-DL.(1080p).ExKinoRay\Geroj.po.vyzovu.E01.2019.WEB-DL.(1080p).ExKinoRay.mkv
Формат : Matroska
Версия формата : Version 4
Размер файла : 2,05 Гбайт
Продолжительность : 47 м. 48 с.
Режим общего битрейта : Постоянный
Общий поток : 6144 Кбит/сек
Дата кодирования : UTC 2020-06-15 19:58:00
Программа кодирования : mkvmerge v6.9.1 ('Blue Panther') 64bit built on Apr 18 2014 18:23:38
Библиотека кодирования : libebml v1.3.0 + libmatroska v1.4.1

Видео
Идентификатор : 1
Формат : AVC
Формат/Информация : Advanced Video Codec
Профиль формата : High@L4.1
Настройки формата : 2 Ref Frames
Параметр CABAC формата : Нет
Параметр RefFrames формата : 2 кадра
Идентификатор кодека : V_MPEG4/ISO/AVC
Продолжительность : 47 м. 49 с.
Вид битрейта : Постоянный
Битрейт : 6000 Кбит/сек
Ширина : 1920 пикселей
Высота : 1080 пикселей
Соотношение сторон : 16:9
Режим частоты кадров : Постоянный
Частота кадров : 25,000 кадров/сек
Стандарт вещания : PAL
Цветовое пространство : YUV
Субдискретизация насыщенности : 4:2:0
Битовая глубина : 8 бит
Тип развёртки : Прогрессивная
Бит/(Пиксели*Кадры) : 0.116
Размер потока : 1,95 Гбайт (95%)
Default : Да
Forced : Нет
Цветовой диапазон : Limited
Основные цвета : BT.709
Характеристики трансфера : BT.709
Коэффициенты матрицы : BT.709

Аудио
Идентификатор : 2
Формат : AC-3
Формат/Информация : Audio Coding 3
Коммерческое название : Dolby Digital
Идентификатор кодека : A_AC3
Продолжительность : 47 м. 48 с.
Вид битрейта : Постоянный
Битрейт : 192 Кбит/сек
Каналы : 2 канала
ChannelLayout : L R
Частота : 48,0 КГц
Частота кадров : 31,250 кадров/сек (1536 SPF)
Битовая глубина : 16 бит
Метод сжатия : С потерями
Размер потока : 65,7 Мбайт (3%)
Язык : Russian
ServiceKind/String : Complete Main
Default : Да
Forced : Нет

Когда раздача ведётся путём добавления новых серий, при каждом добавлении создётся новый торрент. Чтобы начать докачку новой серии, пользователям необходимо сделать следующее:
(1) остановить скачивание,
(2) удалить старый торрент у себя из клиента (старые серии удалять не надо),
(3) скачать новый торрент и запустить его у себя в клиенте вместо старого, при этом указать клиенту путь в старую папку, куда и должно происходить скачивание новых серий.
Ваш клиент при этом должен произвести хеширование (проверку) старой папки (если не производит сам - помогите ему сделать это), и будет докачивать только те серии, которых у вас ещё нет. Старые серии при этом не удаляются, а продолжают раздаваться!
Eсли вы уже удалили старые серии, то предотвратить повторную закачку старых серий можно, отжав галочку в соответсвующих местах при запуске нового торрента. По возможности, желательно не удалять старые серии как можно дольше, чтобы релизер не столько продолжал раздавать старые серии, а смог сконцентрироваться на новых.
pb.wtf



Скачать Герой по вызову через торрент https://i112.fastpic.ru/big/2020/0615/3a/a6695c44f8c4a548d5a45d54fe31393a.jpg Скачать фильм Герой по вызову через торрент бесплантно в хорошем качестве Описание: Иван Лутошин, врач по профессии и неудачник по жизни, узнает, что у него неоперабельная опухоль мозга. Он не хочет ждать ... 10 10 5
Info! Серебряная раздача, засчитывается только 50% скачанного.
Торрент: Зарегистрирован [2020-06-19 23:56] · скачан: 132 раз
Статус: √ проверено
Размер: 19.94 GB
Как cкачать? Как скачать Герой по вызову через торрент | qTorrent

% Раздел Тема Автор DL S | L
Наши сериалы [ 5.93 GB ] Герой по вызову / Сезон: 1 / Серии: 1-10 из 10 [2020 SATRip] bober100 Скачать
1 | 0
Наши сериалы [ 11.97 GB ] Герой по вызову / Сезон: 1 / Серии: 1-10 из 10 [2020 WEBRip 720p] bober100 Скачать
1 | 0
Наши сериалы [ 5.84 GB ] Герой по вызову / Сезон: 1 / Серии: 1-10 из 10 [2020 WEBRip] bober100 Скачать
3 | 0
Наши сериалы [ 7.12 GB ] Герой по вызову / Сезон: 1 / Серии: 1-10 из 10 [2020 WEBRip-AVC] bober100 Скачать
2 | 0

28-11-2019 20:33  

Отключить всю рекламу на сайте

    Дорогой пользователь! Огромная просьба, поблагодарите релизера, оцените раздачу и оставьте свои комментарий, если Вы скачали Герой по вызову через торрент бесплатно! Внесите свою лепту в развитие PiratBit!
    Комментировать посты могут только пользователи прошедшие не сложную регистрацию
    Показать сообщения:    

    Герой по вызову через торрент
    Скачать бесплатно Герой по вызову
    Герой по вызову скачать торрент
    Герой по вызову смотреть онлайн
    Cкачать фильм Герой по вызову бесплатно
    Герой по вызову скачать торрент в хорошем качестве
    Герой по вызову смотреть онлайн бесплатно в хорошем качестве


    Вы не можете начинать темы
    Вы не можете отвечать на сообщения
    Вы не можете редактировать свои сообщения
    Вы не можете удалять свои сообщения
    Вы не можете голосовать в опросах
    Вы не можете прикреплять файлы к сообщениям
    Вы можете скачивать файлы