2 сезон

iTunes

MVO

1

2 сезон

iTunes

iTunes

1 сезон

RePack

30

Новинка

ВАЖНО

ИГРА 18+

pack

RePack

MK11
pack

Легкие деньги

RePack

jed

RePack

fifa19

RePack

RDR2

RePack

NEED FOR SPEED™ PAYBACK

4 сезон

9 сезон

Бесстыжие 9 сезон

Все сериалы

все сериалы на PB.wtf

RePack

FAR CRY 5

Anonymous, добрый день, мы не успеваем собрать деньги на оплату серверов за декабрь и январь, помогите нам пожалуйста в это трудное время. В качестве благодарности мы отключим Вам всю рекламу на сайте (укажите свой ник в строку Ваше имя)!

×
  
Magnet ссылка

Самолет президента / Air Force One (Вольфганг Петерсен) [1997 г., боевик, триллер, драма, приключения, BDRip 720p / 60 FPS, Дубляж] от R.G. HD-Films pb.wtf

Самолет президента через торрент pb.wtf

Размер: 3.81 GB | Добавлен: 7 мес. назад | Торрент скачан:38 раз
Скачать  

16-06-2020 14:34 Самолет президента Скачать торрент  

Самолет президента / Air Force One
Год выпуска: : 1997
Страна: : США, Германия
Жанр: : боевик, триллер, драма, приключения
Продолжительность: 02:04:35
Перевод: Дубляж
Субтитры: Russian, English

Режиссер: Вольфганг Петерсен

Бюджет: $85 000 000
Премьера в мире: 21 июля 1997

rating

В ролях: Харрисон Форд, Гари Олдман, Гленн Клоуз, Венди Крюсон, Лизель Мэтьюз, Пол Гилфойл, Ксандер Беркли, Уильям Х. Мэйси, Дин Стокуэлл, Том Эверетт

Сюжет фильма: Самолет президента — самый охраняемый объект ВВС США. Президент возвращается с переговоров в Москве вместе с семьей и администрацией. Но едва самолет поднимается в воздух, его захватывает группа террористов, которыми руководит непримиримый коммунист Коршунов. Он угрожает убить заложников, если их лидер, генерал Радек, заключенный в тюрьму, не будет освобожден. Президенту приходится бороться за жизнь близких ему людей и за будущее человечества.


Качество видео: BDRip 720p / 60 FPS
Формат: MKV
Видео кодек: H.264
Аудио кодек: AC3
Видео : x264, 1280 x 536 ( 2,40:1 ), 3997 kbps, 60,000 fps, ( 0.097 bpp)
Аудио : Русский, AC-3, 48.0 KHz, 6 ch, 384 Kbps
Релиз от:

скриншот   скриншот   скриншот   скриншот   скриншот   скриншот  Автор рипа: slaventi-69
x264 [info]: frame I:1670 Avg QP:16.63 size: 57981
x264 [info]: frame P:98670 Avg QP:17.78 size: 22161
x264 [info]: frame B:347863 Avg QP:20.33 size: 4166
x264 [info]: consecutive B-frames: 1.1% 2.3% 5.5% 13.8% 59.8% 17.6%


Общее
Уникальный идентификатор : 230382673413178983661226553148222205739 (0xAD5216C4BC3D83C88ACC7726DA1BEF2B)
Полное имя : F:\Air.Force.One.(1997).BDRip.720p.(60 Fps).mkv
Формат : Matroska
Версия формата : Version 4
Размер файла : 3,81 Гбайт
Продолжительность : 2 ч. 4 м.
Общий поток : 4385 Кбит/сек
Название фильма : Самолет президента / Air Force One (1997) BDRip 720p (60 Fps)
Дата кодирования : UTC 2020-06-14 18:41:46
Программа кодирования : mkvmerge v12.0.0 ('Trust / Lust') 64bit
Библиотека кодирования : libebml v1.3.4 + libmatroska v1.4.5

Видео
Идентификатор : 1
Формат : AVC
Формат/Информация : Advanced Video Codec
Профиль формата : High@L4.1
Настройки формата : CABAC / 8 Ref Frames
Параметр CABAC формата : Да
Параметр RefFrames формата : 8 кадров
Идентификатор кодека : V_MPEG4/ISO/AVC
Продолжительность : 2 ч. 4 м.
Битрейт : 3997 Кбит/сек
Ширина : 1280 пикселей
Высота : 536 пикселей
Соотношение сторон : 2,40:1
Режим частоты кадров : Постоянный
Частота кадров : 60,000 кадров/сек
Цветовое пространство : YUV
Субдискретизация насыщенности : 4:2:0
Битовая глубина : 8 бит
Тип развёртки : Прогрессивная
Бит/(Пиксели*Кадры) : 0.097
Размер потока : 3,48 Гбайт (91%)
Заголовок : slaventi-69 ( R.G. HD-Films | 60 fps )
Библиотека кодирования : x264 core 130 r2273 b3065e6
Настройки программы : cabac=1 / ref=8 / deblock=1:0:0 / analyse=0x3:0x113 / me=umh / subme=9 / psy=1 / psy_rd=1.00:0.00 / mixed_ref=1 / me_range=26 / chroma_me=1 / trellis=2 / 8x8dct=1 / cqm=0 / deadzone=21,11 / fast_pskip=0 / chroma_qp_offset=-2 / threads=4 / lookahead_threads=2 / sliced_threads=0 / nr=0 / decimate=1 / interlaced=0 / bluray_compat=0 / constrained_intra=0 / bframes=5 / b_pyramid=2 / b_adapt=2 / b_bias=0 / direct=3 / weightb=1 / open_gop=0 / weightp=2 / keyint=600 / keyint_min=25 / scenecut=40 / intra_refresh=0 / rc=crf / mbtree=0 / crf=17.0 / qcomp=0.60 / qpmin=0 / qpmax=69 / qpstep=4 / ip_ratio=1.40 / pb_ratio=1.30 / aq=1:1.00
Язык : English
Default : Да
Forced : Нет

Аудио
Идентификатор : 2
Формат : AC-3
Формат/Информация : Audio Coding 3
Коммерческое название : Dolby Digital
Идентификатор кодека : A_AC3
Продолжительность : 2 ч. 4 м.
Вид битрейта : Постоянный
Битрейт : 384 Кбит/сек
Каналы : 6 каналов
Channel layout : L R C LFE Ls Rs
Частота : 48,0 КГц
Частота кадров : 31,250 кадров/сек (1536 SPF)
Битовая глубина : 16 бит
Метод сжатия : С потерями
Размер потока : 342 Мбайт (9%)
Заголовок : Dub
Язык : Russian
ServiceKind/String : Complete Main
Default : Да
Forced : Нет

Текст #1
Идентификатор : 3
Формат : UTF-8
Идентификатор кодека : S_TEXT/UTF8
Идентификатор кодека/Информация : UTF-8 Plain Text
Продолжительность : 1 ч. 56 м.
Битрейт : 81 бит/сек
ElementCount : 1228
Размер потока : 69,6 Кбайт (0%)
Язык : Russian
Default : Нет
Forced : Нет

Текст #2
Идентификатор : 4
Формат : UTF-8
Идентификатор кодека : S_TEXT/UTF8
Идентификатор кодека/Информация : UTF-8 Plain Text
Продолжительность : 1 ч. 53 м.
Битрейт : 56 бит/сек
ElementCount : 1204
Размер потока : 47,2 Кбайт (0%)
Язык : English
Default : Нет
Forced : Нет

Меню
00:00:00.000 : :Chapter 1
00:04:04.494 : :Chapter 2
00:05:51.184 : :Chapter 3
00:08:34.764 : :Chapter 4
00:14:15.938 : :Chapter 5
00:21:02.010 : :Chapter 6
00:24:34.764 : :Chapter 7
00:25:25.482 : :Chapter 8
00:32:44.253 : :Chapter 9
00:34:49.128 : :Chapter 10
00:39:35.623 : :Chapter 11
00:42:50.067 : :Chapter 12
00:49:15.619 : :Chapter 13
00:54:30.976 : :Chapter 14
00:57:38.371 : :Chapter 15
01:00:11.649 : :Chapter 16
01:03:48.991 : :Chapter 17
01:08:33.109 : :Chapter 18
01:10:46.909 : :Chapter 19
01:12:02.526 : :Chapter 20
01:13:22.689 : :Chapter 21
01:15:14.635 : :Chapter 22
01:20:23.735 : :Chapter 23
01:22:32.489 : :Chapter 24
01:23:23.248 : :Chapter 25
01:25:10.230 : :Chapter 26
01:26:20.466 : :Chapter 27
01:31:44.457 : :Chapter 28
01:32:50.731 : :Chapter 29
01:35:41.193 : :Chapter 30
01:37:56.245 : :Chapter 31
01:41:46.892 : :Chapter 32
01:44:19.503 : :Chapter 33
01:49:55.338 : :Chapter 34
01:58:19.467 : :Chapter 35

Просьба к переливающим на другие сайты, в оформлении указывайте пожалуйста авторство группы R.G. HD-Films pb.wtf



Скачать Самолет президента через торрент http://lostpic.net/orig_images/3/9/7/397149cb803bb99fc68d3bc546f077db.png Скачать фильм Самолет президента через торрент бесплантно в хорошем качестве В ролях: Харрисон Форд, Гари Олдман, Гленн Клоуз, Венди Крюсон, Лизель Мэтьюз, Пол Гилфойл, Ксандер Беркли, Уильям Х. Мэйси, Дин Стокуэлл, ... 7.8 10 4
Info! Золотая раздача, скачанное не засчитывается.
Торрент: Зарегистрирован [2020-06-16 14:34] · скачан: 38 раз
Статус: √ проверено
Размер: 3.81 GB
Как cкачать? Как скачать Самолет президента через торрент | UTorrent

28-11-2019 20:33  

Отключить всю рекламу на сайте

16-06-2020 21:42 Самолет президента Скачать торрент  

Оооооооо, классика подрулила!!!! Огромное спасибо за фильм с Фордом!!! Давно ждал, теперь имеем в коллекции!!! Большая благодарность за Ваш труд, уважаемый релизер...pb.wtf



    Дорогой пользователь! Огромная просьба, поблагодарите релизера, оцените раздачу и оставьте свои комментарий, если Вы скачали Самолет президента через торрент бесплатно! Внесите свою лепту в развитие PiratBit!
    Комментировать посты могут только пользователи прошедшие не сложную регистрацию
    Показать сообщения:    

    Самолет президента через торрент
    Скачать бесплатно Самолет президента
    Самолет президента скачать торрент
    Самолет президента смотреть онлайн
    Cкачать фильм Самолет президента бесплатно
    Самолет президента скачать торрент в хорошем качестве
    Самолет президента смотреть онлайн бесплатно в хорошем качестве


    Вы не можете начинать темы
    Вы не можете отвечать на сообщения
    Вы не можете редактировать свои сообщения
    Вы не можете удалять свои сообщения
    Вы не можете голосовать в опросах
    Вы не можете прикреплять файлы к сообщениям
    Вы можете скачивать файлы