2 сезон

iTunes

MVO

1

2 сезон

iTunes

iTunes

1 сезон

RePack

30

Новинка

ВАЖНО

ИГРА 18+

pack

RePack

MK11
pack

Легкие деньги

RePack

jed

RePack

fifa19

RePack

RDR2

RePack

NEED FOR SPEED™ PAYBACK

4 сезон

9 сезон

Бесстыжие 9 сезон

Все сериалы

все сериалы на PB.wtf

RePack

FAR CRY 5

Anonymous, доброе утро, мы не успеваем собрать деньги на оплату серверов за декабрь и январь, помогите нам пожалуйста в это трудное время. В качестве благодарности мы отключим Вам всю рекламу на сайте (укажите свой ник в строку Ваше имя)!

×
  
Magnet ссылка

Элитный отряд / Elite Squad / Tropa de Elite (Жозе Падилья) [2007 г., боевик, триллер, драма, криминал, BDRip 720p / 60 FPS, Профессиональный (многоголосый)] от R.G. HD-Films pb.wtf

Элитный отряд через торрент pb.wtf

Раздают: 1 [ 0 KB/s ]
Размер: 5.11 GB | Добавлен: 6 мес. назад | Торрент скачан:57 раз
Скачать  

17-06-2020 13:45 Элитный отряд Скачать торрент  

Элитный отряд / Elite Squad / Tropa de Elite
Год выпуска: : 2007
Страна: : Бразилия, Аргентина, США, Нидерланды
Жанр: : боевик, триллер, драма, криминал
Продолжительность: 01:54:43
Перевод: Профессиональный (многоголосый, закадровый)
Субтитры: Russian, English

Режиссер: Жозе Падилья

Бюджет: $4 000 000
Премьера в мире: 17 августа 2007

rating

В ролях: Вагнер Моура, Андре Рамиро, Кайу Жункейра, Мильем Кортас, Фернанда Мачадо, Мария Рибейро, Паоло Вилела, Фернанда Де Фрейтас, Андре Фелипе, Фабио Лаго

Описание: В 1997 году, перед визитом Папы Римского в Рио де-Жанейро, капитан Насцименто из БОПО (Батальона особых полицейских операций) получает задание устранить опасность, исходящую от наркоторговцев, действующих в опасных трущобах поблизости от резиденции Папы. Капитан Насцименто ищет человека, способного заменить его, так как жена капитана беременна, и он собирается оставить БОПО и стать наставником новобранцев.

Тем временем, два друга-идеалиста Нето и Матиас начинают службу в военной полиции, рассчитывая стать честными полицейскими и бороться с криминалом. Однако они сталкиваются в военной полиции с коррупцией, недостатком профессионализма и бюрократическим идиотизмом. После серьёзного инцидента в Моро да Бабилония они решают вступить в ряды БОПО.

Пути капитана Насцименто, Нето и Матиаса тесно переплетаются на протяжении нескольких месяцев, вначале в период жёстких тренировок, затем в операции против наркоторговцев. Насцименто верит, что Нето может заменить его, но импульсивная натура Нето затрудняет принятие решения. Позднее кандидатура интеллигентного Матиаса кажется корректным выбором, но Матиасу нужно доказать, что у него есть сердце…


Качество видео: BDRip 720p / 60 FPS
Формат: MKV
Видео кодек: H.264
Аудио кодек: AC3
Видео : x264, 1280 x 696 ( 1,85:1 ), 5996 kbps, 60,000 fps, ( 0.112 bpp)
Аудио : Русский, AC-3, 48.0 KHz, 6 ch, 384 Kbps ( MVO R5 )
Релиз от:

скриншот   скриншот   скриншот   скриншот   скриншот   скриншот  Автор рипа: slaventi-69
Общее
Уникальный идентификатор : 176855356977781183916229217682337909194 (0x850D1A4FFA956ABEAB6728162F2D49CA)
Полное имя : F:\Tropa.de.Elite.(2007).BDRip.720p.(60 Fps).mkv
Формат : Matroska
Версия формата : Version 4
Размер файла : 5,11 Гбайт
Продолжительность : 1 ч. 54 м.
Общий поток : 6385 Кбит/сек
Название фильма : Элитный отряд / Elite Squad / Tropa de Elite (2007) BDRip 720p (60 Fps)
Дата кодирования : UTC 2020-06-01 14:58:54
Программа кодирования : mkvmerge v12.0.0 ('Trust / Lust') 64bit
Библиотека кодирования : libebml v1.3.4 + libmatroska v1.4.5

Видео
Идентификатор : 1
Формат : AVC
Формат/Информация : Advanced Video Codec
Профиль формата : High@L4.1
Настройки формата : CABAC / 8 Ref Frames
Параметр CABAC формата : Да
Параметр RefFrames формата : 8 кадров
Идентификатор кодека : V_MPEG4/ISO/AVC
Продолжительность : 1 ч. 54 м.
Битрейт : 5996 Кбит/сек
Ширина : 1280 пикселей
Высота : 696 пикселей
Соотношение сторон : 1,85:1
Режим частоты кадров : Постоянный
Частота кадров : 60,000 кадров/сек
Цветовое пространство : YUV
Субдискретизация насыщенности : 4:2:0
Битовая глубина : 8 бит
Тип развёртки : Прогрессивная
Бит/(Пиксели*Кадры) : 0.112
Размер потока : 4,80 Гбайт (94%)
Заголовок : slaventi-69 ( R.G. HD-Films | 60 fps )
Библиотека кодирования : x264 core 130 r2273 b3065e6
Настройки программы : cabac=1 / ref=8 / deblock=1:-1:-1 / analyse=0x3:0x113 / me=umh / subme=9 / psy=1 / psy_rd=1.00:0.00 / mixed_ref=1 / me_range=26 / chroma_me=1 / trellis=2 / 8x8dct=1 / cqm=0 / deadzone=21,11 / fast_pskip=0 / chroma_qp_offset=-2 / threads=4 / lookahead_threads=1 / sliced_threads=0 / nr=0 / decimate=1 / interlaced=0 / bluray_compat=0 / constrained_intra=0 / bframes=5 / b_pyramid=2 / b_adapt=2 / b_bias=0 / direct=3 / weightb=1 / open_gop=0 / weightp=2 / keyint=600 / keyint_min=25 / scenecut=40 / intra_refresh=0 / rc=crf / mbtree=0 / crf=19.2 / qcomp=0.60 / qpmin=0 / qpmax=69 / qpstep=4 / ip_ratio=1.40 / pb_ratio=1.30 / aq=1:1.00
Язык : Portuguese
Default : Да
Forced : Нет

Аудио
Идентификатор : 2
Формат : AC-3
Формат/Информация : Audio Coding 3
Коммерческое название : Dolby Digital
Идентификатор кодека : A_AC3
Продолжительность : 1 ч. 54 м.
Вид битрейта : Постоянный
Битрейт : 384 Кбит/сек
Каналы : 6 каналов
Channel layout : L R C LFE Ls Rs
Частота : 48,0 КГц
Частота кадров : 31,250 кадров/сек (1536 SPF)
Битовая глубина : 16 бит
Метод сжатия : С потерями
Размер потока : 315 Мбайт (6%)
Заголовок : MVO R5
Язык : Russian
ServiceKind/String : Complete Main
Default : Да
Forced : Нет

Текст #1
Идентификатор : 3
Формат : UTF-8
Идентификатор кодека : S_TEXT/UTF8
Идентификатор кодека/Информация : UTF-8 Plain Text
Продолжительность : 1 ч. 47 м.
Битрейт : 109 бит/сек
ElementCount : 1549
Размер потока : 86,6 Кбайт (0%)
Заголовок : русские
Язык : Russian
Default : Нет
Forced : Нет

Текст #2
Идентификатор : 4
Формат : UTF-8
Идентификатор кодека : S_TEXT/UTF8
Идентификатор кодека/Информация : UTF-8 Plain Text
Продолжительность : 1 ч. 47 м.
Битрейт : 71 бит/сек
ElementCount : 1483
Размер потока : 56,1 Кбайт (0%)
Заголовок : английские
Язык : English
Default : Нет
Forced : Нет

Меню
00:00:00.000 : en:Chapter 01
00:11:46.642 : en:Chapter 02
00:24:03.128 : en:Chapter 03
00:37:39.610 : en:Chapter 04
00:52:08.228 : en:Chapter 05
01:07:41.911 : en:Chapter 06
01:21:57.432 : en:Chapter 07
01:36:44.401 : en:Chapter 08

Просьба к переливающим на другие сайты, в оформлении указывайте пожалуйста авторство группы R.G. HD-Films pb.wtf



Скачать Элитный отряд через торрент http://i4.imageban.ru/out/2018/09/03/4e115759baef1bffd2df1e64b641254c.png Скачать фильм Элитный отряд через торрент бесплантно в хорошем качестве Описание: В 1997 году, перед визитом Папы Римского в Рио де-Жанейро, капитан Насцименто из БОПО (Батальона особых полицейских операций) ... 9.8 10 4
Торрент: Зарегистрирован [2020-06-17 13:45] · скачан: 57 раз
Статус: √ проверено
Размер: 5.11 GB
Как cкачать? Как скачать Элитный отряд через торрент | UTorrent



Последний раз редактировалось: slaventi-69 (2020-06-28 17:46), всего редактировалось 1 раз

28-11-2019 20:33  

Отключить всю рекламу на сайте

18-06-2020 00:59 Элитный отряд Скачать торрент  

slaventi-69, ты собираешься поднять Tropa de Élite 2 до 60fps?pb.wtf



18-06-2020 07:01 Элитный отряд Скачать торрент  

Пока заказов не поступало, если хотите сделайте, тогда и дублей не будет, и поблагодарят.pb.wtf



19-06-2020 10:51 Элитный отряд Скачать торрент  

это хорошее кино?pb.wtf



    Дорогой пользователь! Огромная просьба, поблагодарите релизера, оцените раздачу и оставьте свои комментарий, если Вы скачали Элитный отряд через торрент бесплатно! Внесите свою лепту в развитие PiratBit!
    Комментировать посты могут только пользователи прошедшие не сложную регистрацию
    Показать сообщения:    

    Элитный отряд через торрент
    Скачать бесплатно Элитный отряд
    Элитный отряд скачать торрент
    Элитный отряд смотреть онлайн
    Cкачать фильм Элитный отряд бесплатно
    Элитный отряд скачать торрент в хорошем качестве
    Элитный отряд смотреть онлайн бесплатно в хорошем качестве


    Вы не можете начинать темы
    Вы не можете отвечать на сообщения
    Вы не можете редактировать свои сообщения
    Вы не можете удалять свои сообщения
    Вы не можете голосовать в опросах
    Вы не можете прикреплять файлы к сообщениям
    Вы можете скачивать файлы