2 сезон

iTunes

MVO

1

2 сезон

iTunes

iTunes

1 сезон

RePack

30

Ultimate

ВАЖНО

ИГРА 18+

pack

RePack

MK11
pack

Легкие деньги

RePack

jed

RePack

fifa19

RePack

RDR2

RePack

NEED FOR SPEED™ PAYBACK

4 сезон

9 сезон

Бесстыжие 9 сезон

Все сериалы

все сериалы на PB.wtf

RePack

FAR CRY 5

Anonymous, добрый вечер, мы не успеваем собрать деньги на оплату серверов за декабрь и январь, помогите нам пожалуйста в это трудное время. В качестве благодарности мы отключим Вам всю рекламу на сайте (укажите свой ник в строку Ваше имя)!

×
  
Magnet ссылка

Идеальный шторм / The Perfect Storm (Вольфганг Петерсен) [2000 г., боевик, триллер, драма., BDRip - HEVC 1080p 10 bit 60 FPS, Дубляж] pb.wtf

Идеальный шторм через торрент pb.wtf

Размер: 3.98 GB | Добавлен: 7 мес. назад | Торрент скачан:74 раза
Скачать  

17-06-2020 16:23 Идеальный шторм Скачать торрент  

Идеальный шторм / The Perfect StormГод выпуска: 2000
Страна: США
Жанр: боевик,триллер, драма.
Продолжительность: 02:09:49
Перевод: Дубляж |МОСФИЛЬМ-мастер|
Субтитры: Русские

Режиссер: Вольфганг Петерсен

Бюджет: $140 000 000
Премьера в мире: 26 июня 2000

rating

В ролях: Джордж Клуни, Марк Уолберг, Джон Си Райли, Дайан Лэйн, Уильям Фихтнер, Джон Хоукс, Аллен Пэйн, Мэри Элизабет Мастрантонио, Карен Аллен, Черри Джонс

Описание: Волны Атлантики вздымаются на 100-футовую высоту. Завывающий ветер невиданной силы. Хэллоуин 1991 года. Стихия наступает на трех фронтах, и один из них — ураган «Грейс» — поднимает сильнейший в истории человечества шторм.

Качество: BDRip 1080p / 60 FPS
Формат: MKV
Видео кодек: H.265
Аудио кодек: AC3
Видео: V_MPEGH/ISO/HEVC; 1920x800 (2.40:1); 4003 Kbps; 59,940 fps; 0,043 bpp
Аудио: русский; AC3; 384 Kbps; CBR; 6 ch

Релиз от: DD2D3
скриншот   скриншот   скриншот   скриншот   скриншот   скриншот  

General
Unique ID : 206537217232062779006852468095430630476 (0x9B619F025C376EBDAA661FB335B71C4C)
Complete name : D:\Идеальный шторм - The Perfect Storm (2000) BDRip - HEVC 1080p 10bit 60 FPS.mkv
Format : Matroska
Format version : Version 4
File size : 3.98 GiB
Duration : 2 h 9 min
Overall bit rate : 4 392 kb/s
Movie name : Rip by from DD2D3
Encoded date : UTC 2020-06-16 20:06:15
Writing application : mkvmerge v10.0.0 ('To Drown In You') 32bit
Writing library : libebml v1.3.4 + libmatroska v1.4.5
Attachments : poster

Video
ID : 1
Format : HEVC
Format/Info : High Efficiency Video Coding
Format profile : Main@L4.1@Main
Codec ID : V_MPEGH/ISO/HEVC
Duration : 2 h 9 min
Bit rate : 4 004 kb/s
Width : 1 920 pixels
Height : 800 pixels
Display aspect ratio : 2.40:1
Frame rate mode : Constant
Frame rate : 59.940 (60000/1001) FPS
Color space : YUV
Chroma subsampling : 4:2:0
Bit depth : 8 bits
Bits/(Pixel*Frame) : 0.043
Stream size : 3.63 GiB (91%)
Writing library : x265 2.3+33-0b7d54dbb71a87a0:[Windows][MSVC 1800][64 bit] 8bit: KG7x [x265.ru]
Encoding settings : cpuid=1173503 / frame-threads=2 / numa-pools=4 / wpp / no-pmode / no-pme / no-psnr / no-ssim / log-level=2 / input-csp=1 / input-res=1920x800 / interlace=0 / total-frames=466876 / level-idc=41 / high-tier=1 / uhd-bd=0 / ref=3 / no-allow-non-conformance / no-repeat-headers / annexb / no-aud / no-hrd / info / hash=0 / no-temporal-layers / open-gop / min-keyint=25 / keyint=250 / bframes=4 / b-adapt=2 / b-pyramid / bframe-bias=0 / rc-lookahead=20 / lookahead-slices=5 / scenecut=40 / no-intra-refresh / ctu=64 / min-cu-size=8 / no-rect / no-amp / max-tu-size=32 / tu-inter-depth=1 / tu-intra-depth=1 / limit-tu=0 / rdoq-level=0 / dynamic-rd=0.00 / no-ssim-rd / signhide / no-tskip / nr-intra=0 / nr-inter=0 / no-constrained-intra / strong-intra-smoothing / max-merge=2 / limit-refs=3 / no-limit-modes / me=1 / subme=2 / merange=57 / temporal-mvp / weightp / no-weightb / no-analyze-src-pics / deblock=0:0 / no-sao / no-sao-non-deblock / rd=3 / no-early-skip / no-rskip / no-fast-intra / no-tskip-fast / no-cu-lossless / no-b-intra / rdpenalty=0 / psy-rd=4.00 / psy-rdoq=0.00 / no-rd-refine / analysis-mode=0 / no-lossless / cbqpoffs=0 / crqpoffs=0 / rc=abr / bitrate=4000 / qcomp=0.60 / qpstep=1 / stats-write=0 / stats-read=2 / cplxblur=20.0 / qblur=0.5 / ipratio=1.10 / pbratio=1.00 / aq-mode=0 / aq-strength=0.00 / no-cutree / zone-count=0 / no-strict-cbr / qg-size=64 / rc-grain / qpmax=69 / qpmin=0 / sar=1 / overscan=0 / videoformat=5 / range=0 / colorprim=2 / transfer=2 / colormatrix=2 / chromaloc=0 / display-window=0 / max-cll=0,0 / min-luma=0 / max-luma=255 / log2-max-poc-lsb=8 / vui-timing-info / vui-hrd-info / slices=1 / opt-qp-pps / opt-ref-list-length-pps / no-multi-pass-opt-rps / scenecut-bias=0.05 / no-opt-cu-delta-qp / no-aq-motion / no-hdr / no-hdr-opt / refine-level=5 / no-limit-sao
Default : Yes
Forced : No

Audio
ID : 2
Format : AC-3
Format/Info : Audio Coding 3
Commercial name : Dolby Digital
Codec ID : A_AC3
Duration : 2 h 9 min
Bit rate mode : Constant
Bit rate : 384 kb/s
Channel(s) : 6 channels
Channel layout : L R C LFE Ls Rs
Sampling rate : 48.0 kHz
Frame rate : 31.250 FPS (1536 SPF)
Compression mode : Lossy
Stream size : 357 MiB (9%)
Title : Русский, AC3, 6 ch, 384 кбит/с |МОСФИЛЬМ-мастер|
Language : Russian
Service kind : Complete Main
Default : Yes
Forced : No

Text
ID : 3
Format : UTF-8
Codec ID : S_TEXT/UTF8
Codec ID/Info : UTF-8 Plain Text
Duration : 2 h 3 min
Bit rate : 62 b/s
Count of elements : 1262
Stream size : 56.0 KiB (0%)
Title : Русские (Full)
Language : Russian
Default : Yes
Forced : No

Menu
00:00:00.000 : :(01)00:00:00:000
00:05:00.000 : :(02)00:05:00:000
00:10:00.000 : :(03)00:10:00:000
00:15:00.000 : :(04)00:15:00:000
00:20:00.000 : :(05)00:20:00:000
00:25:00.000 : :(06)00:25:00:000
00:30:00.000 : :(07)00:30:00:000
00:35:00.000 : :(08)00:35:00:000
00:40:00.000 : :(09)00:40:00:000
00:45:00.000 : :(10)00:45:00:000
00:50:00.000 : :(11)00:50:00:000
00:55:00.000 : :(12)00:55:00:000
01:00:00.000 : :(13)01:00:00:000
01:05:00.000 : :(14)01:05:00:000
01:10:00.000 : :(15)01:10:00:000
01:15:00.000 : :(16)01:15:00:000
01:20:00.000 : :(17)01:20:00:000
01:25:00.000 : :(18)01:25:00:000
01:30:00.000 : :(19)01:30:00:000
01:35:00.000 : :(20)01:35:00:000
01:40:00.000 : :(21)01:40:00:000
01:45:00.000 : :(22)01:45:00:000
01:50:00.000 : :(23)01:50:00:000
01:55:00.000 : :(24)01:55:00:000
02:00:00.000 : :(25)02:00:00:000
02:05:00.000 : :(26)02:05:00:000

pb.wtf



Скачать Идеальный шторм через торрент https://funkyimg.com/i/35K2c.jpg Скачать фильм Идеальный шторм через торрент бесплантно в хорошем качестве Описание: Волны Атлантики вздымаются на 100-футовую высоту. Завывающий ветер невиданной силы. Хэллоуин 1991 года. Стихия наступает на трех ... 9.8 10 6
Info! Золотая раздача, скачанное не засчитывается.
Торрент: Зарегистрирован [2020-06-17 16:23] · скачан: 74 раз
Статус: √ проверено
Размер: 3.98 GB
Как cкачать? Как скачать Идеальный шторм через торрент | UTorrent

% Раздел Тема Автор DL S | L
Фильмы [HD 720p, 1080p] (Хороший звук DUB, MVO) [ 11.17 GB ] Идеальный шторм / The Perfect Storm [2000 BDRip 1080p by msltel] DUB 2 x AVO msltel Скачать
1 | 0
Фильмы [HD 720p, 1080p] (Хороший звук DUB, MVO) [ 5.1 GB ] Идеальный шторм / The Perfect Storm [2000 BDRip 720p by msltel] DUB 2 x AVO msltel Скачать
1 | 0
Фильмы [HD 720p, 1080p] (Хороший звук DUB, MVO) [ 12.33 GB ] Идеальный шторм / The Perfect Storm [2000 реальные события экранизация BDRip 1080p] DUB + 2xAVO sheker187 Скачать
1 | 0
Фильмы до 2000 г. [ 2.18 GB ] Идеальный шторм / The Perfect Storm [2000 BDRip лицензия] ppin2forenett Скачать
1 | 0
Фильмы [HD 720p, 1080p] (Хороший звук DUB, MVO) [ 6.78 GB ] Идеальный шторм / The Perfect Storm [2000 BDRip 720p] DUB AVO potroks Скачать
1 | 0
Фильмы [HD 720p, 1080p] (Хороший звук DUB, MVO) [ 12.18 GB ] Идеальный шторм  / The Perfect Storm [2000 ] aspace Скачать
1 | 0

28-11-2019 20:33  

Отключить всю рекламу на сайте


19-06-2020 10:52 Идеальный шторм Скачать торрент  

можно пальнуть разикpb.wtf



19-06-2020 20:21 Идеальный шторм Скачать торрент  

Спасибо автору за работу над своими релизами! Многие скачал, но в последствии пришлось искать замену данному формату! Просмотр только на ПК не устраивает! А на ТВ не помогла даже последняя прошивка плеера! Так что увы данный формат не для всех!pb.wtf



20-06-2020 18:49 Идеальный шторм Скачать торрент  

михакруг писал(а):

Спасибо автору за работу над своими релизами! Многие скачал, но в последствии пришлось искать замену данному формату! Просмотр только на ПК не устраивает! А на ТВ не помогла даже последняя прошивка плеера! Так что увы данный формат не для всех!

Я уже давно ПК приладил к ТВ и HI&END просмотр без напрягов.
Пока нет устройств, сервер размером со смартфон и чтобы тянул всё великолепие и мощность :)pb.wtf



20-06-2020 19:01 Идеальный шторм Скачать торрент  

Как всегда Большое Спасибо!
Редкость особенно для 60FPS!
Отличное качество/размер/разрешение! Просто

Помогу с раздачей!

Полагаю грядёт обновление моей коллекции! pb.wtf



    Дорогой пользователь! Огромная просьба, поблагодарите релизера, оцените раздачу и оставьте свои комментарий, если Вы скачали Идеальный шторм через торрент бесплатно! Внесите свою лепту в развитие PiratBit!
    Комментировать посты могут только пользователи прошедшие не сложную регистрацию
    Показать сообщения:    

    Идеальный шторм через торрент
    Скачать бесплатно Идеальный шторм
    Идеальный шторм скачать торрент
    Идеальный шторм смотреть онлайн
    Cкачать фильм Идеальный шторм бесплатно
    Идеальный шторм скачать торрент в хорошем качестве
    Идеальный шторм смотреть онлайн бесплатно в хорошем качестве


    Вы не можете начинать темы
    Вы не можете отвечать на сообщения
    Вы не можете редактировать свои сообщения
    Вы не можете удалять свои сообщения
    Вы не можете голосовать в опросах
    Вы не можете прикреплять файлы к сообщениям
    Вы можете скачивать файлы