Ссылка на приватное зеркало нашего сайта всего за 1$. Внимание количество ограничено!!!

2 сезон

iTunes

1 сезон

1

iTunes

iTunes

iTunes

1 сезон

RePack

30

ИГРА 18+

pack

ВАЖНО

!!Акция!!

Alien_RageХит недели

RePack

MK11
pack

Забери бонус

RePack

jed

!!Акция!!

Alien_Rage

RePack

fifa19

RePack

Assassins Creed: Odyssey

RePack

NEED FOR SPEED™ PAYBACK

4 сезон

9 сезон

Бесстыжие 9 сезон

Все сериалы

все сериалы на PB.wtf

RePack

FAR CRY 5
  

Надежда / Сезон: 1 / Серии: 1-16 из 16 (Елена Хазанова) [2020, Драма, криминал, боевик, WEBRip, (Версия 18+)] pb.wtf

Надежда через торрент pb.wtf

Раздают: 1 [ 5 KB/s ]
Размер: 5.47 GB | Добавлен: 2 мес. 20 д. назад | Торрент скачан:124 раза
Скачать  

18-06-2020 02:40 Надежда Скачать торрент  

Надежда
Год выпуска: 2020
Страна: Россия
Студия: START STUDIO, СУПЕР продакшн, Киностудия "Yellow, Black and White"
Жанр: Драма, криминал, боевик
Продолжительность: ~ 00:25:00
Перевод: Не требуется
Субтитры: отсутствуют

Режиссер: Елена Хазанова



В ролях: Виктория Исакова, Александр Кузьмин (II), Вероника Корниенко, Ася Громова, Алексей Морозов, Алексей Гуськов, Юлия Мельникова, Алексей Гришин, Алексей Мотов, Тимофей Кресло, Юлия Ауг, Евгений Фадин, Мария Голицына, Елена Ветрова, Андрей Дерьков, Андрей Бобров, Даниил Осокин, Александр Недорезов, Кирилл Ермичёв, Виктория Тарасова, Иван Бурлачко, Юрий Анпилогов, Павел Шумский, Андрей Нагорнов, Эльмира Мирэль, Олег Каменщиков, Олег Савостюк (II), Андрей Стоянов, Валерий Жуков, Олег Бойко, Сергей Горбачёв (II), Савва Гусев, Лилия Кочкарева, Екатерина Лисовая, Юрий Гумиров, Евгений Джураев, Алексей Жиров, Михаил Панюков, Иван Прилль

Описание: Надежда – на первый взгляд обычная москвичка. Любящий муж-музыкант, дочь – задиристый подросток, работа – стюардесса в частной авиации. Вот только вместо полетов на бизнес-джетах Надежда выполняет задания гораздо более опасные: она – хитроумный спецагент и безжалостный киллер. Надя беспрекословно выполняет все заказы своего руководителя, когда-то вытащившего ее, совсем юную, из тюрьмы. Но Надежда устала вести двойную жизнь и, похоже, готовит собственную спецоперацию.

Качество: WEBRip
Формат: AVI

Видео: 720x400 (16:9), 25.000 fps, XviD, 1744 Kbps
Аудио: 48.0 kHz, AC3 Dolby Digital, 2/0 (L,R) ch, ~ 192 kbps
скриншот  скриншот  скриншот  скриншот  скриншот  

General
Complete name : Downloads\Nadezhda.e02.WEB-DLRip.25Kuzmich.avi
Format : AVI
Format/Info : Audio Video Interleave
File size : 352 MiB
Duration : 25mn 17s
Overall bit rate : 1 946 Kbps
Writing application : VirtualDubMod 1.5.10.3 | www.virtualdub-fr.org || (build 2550/release)
Writing library : VirtualDubMod build 2550/release

Video #0
ID : 0
Format : MPEG-4 Visual
Format profile : Advanced Simple@L5
Format settings, BVOP : 1
Format settings, QPel : No
Format settings, GMC : No warppoints
Format settings, Matrix : Default (MPEG)
Codec ID : XVID
Codec ID/Hint : XviD
Duration : 25mn 17s
Bit rate : 1 744 Kbps
Width : 720 pixels
Height : 400 pixels
Display aspect ratio : 16:9
Frame rate : 25.000 fps
Color space : YUV
Chroma subsampling : 4:2:0
Bit depth : 8 bits
Scan type : Progressive
Compression mode : Lossy
Bits/(Pixel*Frame) : 0.242
Stream size : 316 MiB (90%)
Writing library : XviD 73

Audio #1
ID : 1
Format : AC-3
Format/Info : Audio Coding 3
Mode extension : CM (complete main)
Format settings, Endianness : Big
Codec ID : 2000
Duration : 25mn 17s
Bit rate mode : Constant
Bit rate : 192 Kbps
Channel(s) : 2 channels
Channel positions : Front: L R
Sampling rate : 48.0 KHz
Bit depth : 16 bits
Compression mode : Lossy
Stream size : 34.7 MiB (10%)
Alignment : Split accross interleaves
Interleave, duration : 40 ms (1.00 video frame)
Interleave, preload duration : 500 ms

Когда раздача ведётся путём добавления новых серий, при каждом добавлении создётся новый торрент. Чтобы начать докачку новой серии, пользователям необходимо сделать следующее:
(1) остановить скачивание,
(2) удалить старый торрент у себя из клиента (старые серии удалять не надо),
(3) скачать новый торрент и запустить его у себя в клиенте вместо старого, при этом указать клиенту путь в старую папку, куда и должно происходить скачивание новых серий.
Ваш клиент при этом должен произвести хеширование (проверку) старой папки (если не производит сам - помогите ему сделать это), и будет докачивать только те серии, которых у вас ещё нет. Старые серии при этом не удаляются, а продолжают раздаваться!
Eсли вы уже удалили старые серии, то предотвратить повторную закачку старых серий можно, отжав галочку в соответсвующих местах при запуске нового торрента. По возможности, желательно не удалять старые серии как можно дольше, чтобы релизер не столько продолжал раздавать старые серии, а смог сконцентрироваться на новых.
pb.wtf



Скачать Надежда через торрент https://i112.fastpic.ru/big/2020/0618/34/6a732c21c1af5b943abc4c040cde9934.jpg Скачать фильм Надежда через торрент бесплантно в хорошем качестве Описание: Надежда – на первый взгляд обычная москвичка. Любящий муж-музыкант, дочь – задиристый подросток, работа – стюардесса в частной ... 9.8 10 25
Торрент: Зарегистрирован [2020-08-05 22:45] · скачан: 124 раз
Статус: √ проверено
Размер: 5.47 GB
Как cкачать? Как скачать Надежда через торрент | qTorrent

% Раздел Тема Автор DL S | L
Наши сериалы [ 4.36 GB ] Надежда / Сезон: 1 / Серии: 1-16 из 16 [2020 WEBRip ] bober100 Скачать
2 | 0
Наши сериалы [ 20.71 GB ] Надежда / Сезон: 1 / Серии: 1-16 из 16 [2020 WEBRip 1080p ] bober100 Скачать
2 | 0
Наши сериалы [ 5.56 GB ] Надежда / Сезон: 1 / Серии: 1-16 из 16 [2020 WEBRip-AVC ] bober100 Скачать
3 | 0
Наши сериалы [ 11.45 GB ] Надежда / Сезон: 1 / Серии: 1-16 из 16 [2020 WEBRip 720p ] bober100 Скачать
1 | 0
Зарубежные сериалы [ 16.2 GB ] В надежде на спасение / Saving Hope / Сезон: 5 / Серии: 1-18 из из 18 [2016 WEBRip 720p] [MVO] killermax2013 Скачать
1 | 0
Зарубежные сериалы [ 20.85 GB ] В надежде на спасение / Saving Hope / Сезон: 4 / Серии: 1-18 из из 18 [2015-2016 WEBRip 720p] [MVO] killermax2013 Скачать
1 | 0
Наши сериалы [ 8.09 GB ] Я ему верю! /Сезон: 1 /Серии: 16 из 16 [2012 IPTVRip ] -=Cherry=- Скачать
1 | 0

28-11-2019 20:33  

Отключить всю рекламу на сайте

    Дорогой пользователь! Огромная просьба, поблагодарите релизера, оцените раздачу и оставьте свои комментарий, если Вы скачали Надежда через торрент бесплатно! Внесите свою лепту в развитие PiratBit!
    Комментировать посты могут только пользователи прошедшие не сложную регистрацию
    Показать сообщения:    

    Надежда через торрент
    Скачать бесплатно Надежда
    Надежда скачать торрент
    Надежда смотреть онлайн
    Cкачать фильм Надежда бесплатно
    Надежда скачать торрент в хорошем качестве
    Надежда смотреть онлайн бесплатно в хорошем качестве


    Вы не можете начинать темы
    Вы не можете отвечать на сообщения
    Вы не можете редактировать свои сообщения
    Вы не можете удалять свои сообщения
    Вы не можете голосовать в опросах
    Вы не можете прикреплять файлы к сообщениям
    Вы можете скачивать файлы