Ссылка на приватное зеркало нашего сайта всего за 1$. Внимание количество ограничено!!!

2 сезон

iTunes

1 сезон

1

2 сезон

2 сезон

iTunes

1 сезон

RePack

30

Ultimate

ВАЖНО

ИГРА 18+

pack

RePack

MK11
pack

Забери бонус

RePack

jed

!!Акция!!

Alien_Rage

RePack

fifa19

RePack

Assassins Creed: Odyssey

RePack

NEED FOR SPEED™ PAYBACK

4 сезон

9 сезон

Бесстыжие 9 сезон

Все сериалы

все сериалы на PB.wtf

RePack

FAR CRY 5
  

Король Стейтен-Айленда / The King of Staten Island (Джадд Апатоу) [2020, драма, комедия, WEBRip 720p] [MVO] (HDRezka Studio) pb.wtf

Король Стейтен-Айленда через торрент pb.wtf

Размер: 5.63 GB | Добавлен: 5 мес. 12 д. назад | Торрент скачан:235 раз
Скачать  

18-06-2020 05:15 Король Стейтен-Айленда Скачать торрент  

Король Стейтен-Айленда / The King of Staten Island
Год выпуска: 2020
Страна: США
Жанр: драма, комедия
Продолжительность: 02:17:52
Перевод: Профессиональный (многоголосый закадровый) *HDRezka Studio*
Субтитры: русские (forced)

Режиссер: Джадд Апатоу

В ролях: Пит Дэвидсон, Мариса Томей, Билл Бёрр, Бел Паули, Мод Апатоу, Стив Бушеми, Рики Велес, Мойзес Ариас, Лу Уилсон, Карли Аквилино

Описание: Скотт, молодой укурок-раздолбай, живёт с мамой в районе Стейтен-Айленд. Не способный смириться со смертью отца, Скотт предпочитает не думать о будущем и проводит всё время за курением травки и набиванием друзьям татуировок. Всё меняется, когда его мама начинает встречаться с новым мужчиной, Рэем. Скотт выступает против, но в конечном итоге появление нового человека поможет раскачать парня и заставит его задуматься о собственной жизни.

rating

премьера (РФ) - 17 сентября 2020

Качество видео: WEBRip 720p
Формат видео: MKV
Видео: AVC, 1280x532, 23.976 fps, ~5 296 kb/s
Аудио: 48 kHz, AC3 Dolby Digital, 3/2 (L,C,R,l,r) + LFE ch, ~448 kbps
General
Unique ID : 49110294686800163073623252173173293172 (0x24F24C785B570F2E02F3CFF26EE00074)
Complete name : G:\The.King.of.Staten.Island.2020.WEBRip.720p.rus.5.1.HDREZKA.STUDIO.mkv
Format : Matroska
Format version : Version 4
File size : 5.63 GiB
Duration : 2 h 17 min
Overall bit rate mode : Variable
Overall bit rate : 5 860 kb/s
Encoded date : UTC 2020-06-17 09:11:44
Writing application : mkvmerge v28.2.0 ('The Awakening') 64-bit
Writing library : libebml v1.3.6 + libmatroska v1.4.9

Video
ID : 1
Format : AVC
Format/Info : Advanced Video Codec
Format profile : High@L4.1
Format settings : CABAC / 1 Ref Frames
Format settings, CABAC : Yes
Format settings, Reference : 1 frame
Codec ID : V_MPEG4/ISO/AVC
Duration : 2 h 17 min
Bit rate mode : Variable
Bit rate : 5 296 kb/s
Maximum bit rate : 2 000 kb/s
Width : 1 280 pixels
Height : 532 pixels
Display aspect ratio : 2.40:1
Frame rate mode : Constant
Frame rate : 23.976 (24000/1001) FPS
Color space : YUV
Chroma subsampling : 4:2:0
Bit depth : 8 bits
Scan type : Progressive
Bits/(Pixel*Frame) : 0.324
Stream size : 5.08 GiB (90%)
Default : Yes
Forced : No
Duration_Source : General_Duration

Audio
ID : 2
Format : AC-3
Format/Info : Audio Coding 3
Commercial name : Dolby Digital
Codec ID : A_AC3
Duration : 2 h 17 min
Bit rate mode : Constant
Bit rate : 448 kb/s
Channel(s) : 6 channels
Channel layout : L R C LFE Ls Rs
Sampling rate : 48.0 kHz
Frame rate : 31.250 FPS (1536 SPF)
Compression mode : Lossy
Stream size : 440 MiB (8%)
Language : Russian
Service kind : Complete Main
Default : Yes
Forced : No
Duration_Source : General_Duration
скриншот   скриншот   скриншот   скриншот  
pb.wtf



Скачать Король Стейтен-Айленда через торрент https://i112.fastpic.ru/big/2020/0618/3a/e38f9f644a9249d1a31209f429b8bb3a.jpeg Скачать фильм Король Стейтен-Айленда через торрент бесплантно в хорошем качестве Описание: Скотт, молодой укурок-раздолбай, живёт с мамой в районе Стейтен-Айленд. Не способный смириться со смертью отца, Скотт ... 8.9 10 8
Info! Золотая раздача, скачанное не засчитывается.
Торрент: Зарегистрирован [2020-06-18 05:15] · скачан: 235 раз
Статус: √ проверено
Размер: 5.63 GB
Как cкачать? Как скачать Король Стейтен-Айленда через торрент | qTorrent

% Раздел Тема Автор DL S | L
Фильмы 2019-2020 [DVDrip, WEB-DLRip, HDrip] (DUB, MVO) [ 2.9 GB ] Король Стейтен-Айленда / The King of Staten Island [2020 BDRip-AVC] MVO [HDRezka Studio] bober100 Скачать
2 | 0
Фильмы (Blu-ray, BD-Remux, HDDVD) [ 33.72 GB ] Король Стейтен-Айленда / The King of Staten Island [2020 BD Remux 1080p] MVO [HDRezka Studio] bober100 Скачать
1 | 0
Фильмы [HD 720p, 1080p] (Хороший звук DUB, MVO) [ 20.96 GB ] Король Стейтен-Айленда / The King of Staten Island [2020 BDRip 1080p] MVO [HDRezka Studio] bober100 Скачать
1 | 0
Фильмы [HD 720p, 1080p] (Хороший звук DUB, MVO) [ 7.52 GB ] Король Стейтен-Айленда / The King of Staten Island [2020 BDRip 720p] MVO [HDRezka Studio] bober100 Скачать
3 | 0
Фильмы 2019-2020 [DVDrip, WEB-DLRip, HDrip] (DUB, MVO) [ 794 MB ] Король Стейтен-Айленда / The King of Staten Island [2020 WEB-DLRip] MVO [HDRezka Studio] bober100 Скачать
3 | 0
Фильмы 2019-2020 [DVDrip, WEB-DLRip, HDrip] (DUB, MVO) [ 1.46 GB ] Король Стейтен-Айленда / The King of Staten Island [2020 BDRip] MVO [HDRezka Studio] bober100 Скачать
4 | 0
Фильмы (WEB-DL 720p, 1080p) [ 10.01 GB ] Король Стейтен-Айленда / The King of Staten Island [2020 WEB-DL 1080p] MVO [HDRezka Studio] bober100 Скачать
2 | 0

28-11-2019 20:33  

Отключить всю рекламу на сайте

18-06-2020 06:40 Король Стейтен-Айленда Скачать торрент  

Ух ты, эксклюзивчик...на других торрентах этого фильма нету pb.wtf



19-06-2020 10:53 Король Стейтен-Айленда Скачать торрент  

по описанию кено дерьмище. а как на самом деле?pb.wtf



    Дорогой пользователь! Огромная просьба, поблагодарите релизера, оцените раздачу и оставьте свои комментарий, если Вы скачали Король Стейтен-Айленда через торрент бесплатно! Внесите свою лепту в развитие PiratBit!
    Комментировать посты могут только пользователи прошедшие не сложную регистрацию
    Показать сообщения:    

    Король Стейтен-Айленда через торрент
    Скачать бесплатно Король Стейтен-Айленда
    Король Стейтен-Айленда скачать торрент
    Король Стейтен-Айленда смотреть онлайн
    Cкачать фильм Король Стейтен-Айленда бесплатно
    Король Стейтен-Айленда скачать торрент в хорошем качестве
    Король Стейтен-Айленда смотреть онлайн бесплатно в хорошем качестве


    Вы не можете начинать темы
    Вы не можете отвечать на сообщения
    Вы не можете редактировать свои сообщения
    Вы не можете удалять свои сообщения
    Вы не можете голосовать в опросах
    Вы не можете прикреплять файлы к сообщениям
    Вы можете скачивать файлы