2 сезон

iTunes

MVO

1

2 сезон

iTunes

iTunes

1 сезон

RePack

30

Новинка

ВАЖНО

ИГРА 18+

pack

RePack

MK11
pack

Легкие деньги

RePack

jed

RePack

fifa19

RePack

RDR2

RePack

NEED FOR SPEED™ PAYBACK

4 сезон

9 сезон

Бесстыжие 9 сезон

Все сериалы

все сериалы на PB.wtf

RePack

FAR CRY 5

Anonymous, доброй ночи, мы не успеваем собрать деньги на оплату серверов за декабрь и январь, помогите нам пожалуйста в это трудное время. В качестве благодарности мы отключим Вам всю рекламу на сайте (укажите свой ник в строку Ваше имя)!

×
  
Magnet ссылка

Дети шпионов 4D / Spy Kids: All the Time in the World in 4D (Роберт Родригес) [2011 г., Фантастика, боевик, комедия, приключения, семейный, BDRip 720p / 60 FPS, Дубляж] от R.G. HD-Films pb.wtf

Дети шпионов 4D через торрент pb.wtf

Размер: 3.4 GB | Добавлен: 6 мес. назад | Торрент скачан:11 раз
Скачать  

18-06-2020 15:10 Дети шпионов 4D Скачать торрент  

Дети шпионов 4D / Spy Kids: All the Time in the World in 4D
Год выпуска: : 2011
Страна: : США
Жанр: : фантастика, боевик, комедия, приключения, семейный
Продолжительность: 01:27:45
Перевод: Дубляж

Режиссер: Роберт Родригес

Бюджет: $27 000 000
Премьера в мире: 18 августа 2011

rating

В ролях: Джессика Альба, Джоэль МакХэйл, Алекса Вега, Дэрил Сабара, Роуэн Бланчард, Мэйсон Кук, Джереми Пивен, Дэнни Трехо, Белль Солорзано, Дженни Солорзано

Описание: Брат и сестра поневоле должны стать крутыми шпионами, чтобы помешать мечтающему о мировом господстве злодею, и выручить из беды собственную мачеху — секретного суперагента, удалившегося на покой.


Качество видео: BDRip 720p / 60 FPS
Формат: MKV
Видео кодек: H.264
Аудио кодек: AC3
Видео : x264, 1280 x 720 ( 16:9 ), 5164 kbps, 60,000 fps, ( 0.093 bpp)
Аудио : Русский, AC-3, 48.0 KHz, 6 ch, 384 Kbps
Релиз от:

скриншот   скриншот   скриншот   скриншот   скриншот   скриншот  Автор рипа: slaventi-69
x264 [info]: frame I:1901 Avg QP:17.64 size:107283
x264 [info]: frame P:92634 Avg QP:18.50 size: 18275
x264 [info]: frame B:221086 Avg QP:21.12 size: 6779
x264 [info]: consecutive B-frames: 4.6% 9.3% 19.7% 22.2% 36.6% 7.6%


Общее
Уникальный идентификатор : 250769521996459207564586385434212707585 (0xBCA87401FBC51327B4E9A4AA6A662D01)
Полное имя : F:\Spy.Kids.All.the.Time.in.the.World.in.4D.(2011).BDRip.720p.(60 Fps).mkv
Формат : Matroska
Версия формата : Version 4
Размер файла : 3,40 Гбайт
Продолжительность : 1 ч. 27 м.
Общий поток : 5552 Кбит/сек
Название фильма : Дети шпионов 4D / Spy Kids: All the Time in the World in 4D (2011) BDRip 720p (60 Fps)
Дата кодирования : UTC 2020-06-14 18:26:26
Программа кодирования : mkvmerge v12.0.0 ('Trust / Lust') 64bit
Библиотека кодирования : libebml v1.3.4 + libmatroska v1.4.5

Видео
Идентификатор : 1
Формат : AVC
Формат/Информация : Advanced Video Codec
Профиль формата : High@L4.1
Настройки формата : CABAC / 9 Ref Frames
Параметр CABAC формата : Да
Параметр RefFrames формата : 9 кадров
Идентификатор кодека : V_MPEG4/ISO/AVC
Продолжительность : 1 ч. 27 м.
Битрейт : 5164 Кбит/сек
Ширина : 1280 пикселей
Высота : 720 пикселей
Соотношение сторон : 16:9
Режим частоты кадров : Постоянный
Частота кадров : 60,000 кадров/сек
Цветовое пространство : YUV
Субдискретизация насыщенности : 4:2:0
Битовая глубина : 8 бит
Тип развёртки : Прогрессивная
Бит/(Пиксели*Кадры) : 0.093
Размер потока : 3,16 Гбайт (93%)
Заголовок : slaventi-69 ( R.G. HD-Films | 60 fps )
Библиотека кодирования : x264 core 130 r2273 b3065e6
Настройки программы : cabac=1 / ref=9 / deblock=1:0:0 / analyse=0x3:0x133 / me=umh / subme=9 / psy=1 / psy_rd=1.00:0.00 / mixed_ref=1 / me_range=32 / chroma_me=1 / trellis=2 / 8x8dct=1 / cqm=0 / deadzone=21,11 / fast_pskip=0 / chroma_qp_offset=-2 / threads=10 / lookahead_threads=2 / sliced_threads=0 / nr=0 / decimate=1 / interlaced=0 / bluray_compat=0 / constrained_intra=0 / bframes=5 / b_pyramid=2 / b_adapt=2 / b_bias=0 / direct=2 / weightb=1 / open_gop=0 / weightp=2 / keyint=600 / keyint_min=23 / scenecut=40 / intra_refresh=0 / rc=crf / mbtree=0 / crf=18.0 / qcomp=0.60 / qpmin=0 / qpmax=69 / qpstep=4 / ip_ratio=1.40 / pb_ratio=1.30 / aq=1:1.00
Язык : English
Default : Да
Forced : Нет

Аудио
Идентификатор : 2
Формат : AC-3
Формат/Информация : Audio Coding 3
Коммерческое название : Dolby Digital
Идентификатор кодека : A_AC3
Продолжительность : 1 ч. 27 м.
Вид битрейта : Постоянный
Битрейт : 384 Кбит/сек
Каналы : 6 каналов
Channel layout : L R C LFE Ls Rs
Частота : 48,0 КГц
Частота кадров : 31,250 кадров/сек (1536 SPF)
Битовая глубина : 16 бит
Метод сжатия : С потерями
Размер потока : 241 Мбайт (7%)
Заголовок : Dub
Язык : Russian
ServiceKind/String : Complete Main
Default : Да
Forced : Нет

Просьба к переливающим на другие сайты, в оформлении указывайте пожалуйста авторство группы R.G. HD-Films pb.wtf



Скачать Дети шпионов 4D через торрент http://lostpic.net/images/1916bbb8e590da76305fb7f71e2686de.png Скачать фильм Дети шпионов 4D через торрент бесплантно в хорошем качестве Описание: Брат и сестра поневоле должны стать крутыми шпионами, чтобы помешать мечтающему о мировом господстве злодею, и выручить из беды ... 5.5 10 2
Торрент: Зарегистрирован [2020-06-18 15:10] · скачан: 11 раз
Статус: √ проверено
Размер: 3.4 GB
Как cкачать? Как скачать Дети шпионов 4D через торрент | UTorrent



Последний раз редактировалось: slaventi-69 (2020-06-28 17:46), всего редактировалось 1 раз

28-11-2019 20:33  

Отключить всю рекламу на сайте

18-06-2020 15:32 Дети шпионов 4D Скачать торрент  

Теперь мы можем сказать, что полная сага Spy Kids на 60fps. :D

Я видел этот фильм только один раз и на DVD. Я думаю, что пришло время для меня, чтобы посмотреть его в HD

Спасибо за интерполяцию фильмаpb.wtf



18-06-2020 15:53 Дети шпионов 4D Скачать торрент  

Пожалуйста. Смотрите в удовольствие.pb.wtf



19-06-2020 20:12 Дети шпионов 4D Скачать торрент  

slaventi-69 писал(а):

Пожалуйста. Смотрите в удовольствие.

Спасибо! Детям в копилку!pb.wtf



    Дорогой пользователь! Огромная просьба, поблагодарите релизера, оцените раздачу и оставьте свои комментарий, если Вы скачали Дети шпионов 4D через торрент бесплатно! Внесите свою лепту в развитие PiratBit!
    Комментировать посты могут только пользователи прошедшие не сложную регистрацию
    Показать сообщения:    

    Дети шпионов 4D через торрент
    Скачать бесплатно Дети шпионов 4D
    Дети шпионов 4D скачать торрент
    Дети шпионов 4D смотреть онлайн
    Cкачать фильм Дети шпионов 4D бесплатно
    Дети шпионов 4D скачать торрент в хорошем качестве
    Дети шпионов 4D смотреть онлайн бесплатно в хорошем качестве


    Вы не можете начинать темы
    Вы не можете отвечать на сообщения
    Вы не можете редактировать свои сообщения
    Вы не можете удалять свои сообщения
    Вы не можете голосовать в опросах
    Вы не можете прикреплять файлы к сообщениям
    Вы можете скачивать файлы