Ссылка на приватное зеркало нашего сайта всего за 1$. Внимание количество ограничено!!!

2 сезон

iTunes

1 сезон

1

2 сезон

2 сезон

iTunes

1 сезон

RePack

30

Новинка

ВАЖНО

ИГРА 18+

pack

RePack

MK11
pack

Забери бонус

RePack

jed

!!Акция!!

Alien_Rage

RePack

fifa19

RePack

Assassins Creed: Odyssey

RePack

NEED FOR SPEED™ PAYBACK

4 сезон

9 сезон

Бесстыжие 9 сезон

Все сериалы

все сериалы на PB.wtf

RePack

FAR CRY 5
  

Чувствуй ритм / Feel the Beat (Элисса Даун) [2019, Комедия, драма, семейный, WEB-DL 1080p] [DUB] (Пифагор) pb.wtf

Чувствуй ритм через торрент pb.wtf

Раздают: 2 [ 0.1 KB/s ]
Размер: 5.43 GB | Добавлен: 5 мес. 6 д. назад | Торрент скачан:148 раз
Скачать  

19-06-2020 14:55 Чувствуй ритм Скачать торрент  

Чувствуй ритм / Feel the Beat
Информация о фильме
Название: Чувствуй ритм
Оригинальное название: Feel the Beat
Год выпуска: 2020
Жанр: Комедия, драма, семейный
Страна: США
Студия: Bitter Boy Productions Ltd., Deluxe, Resonate Entertainment
Продолжительность: 01:49:59
Перевод: Профессиональный (дублированный) | Пифагор
Субтитры: Русские (Forced, Full), английские, арабские, финские, французские и тд.

Режиссер: Элисса Даун

В ролях: София Карсон, Энрико Колантони, Вольфганг Новограц, Марисса Джэрет Винокур, Дэннис Андрес, Джоанна Колон, Донна Линн Чамплин, Брэндон Кайл Гудман, Рекс Ли, Марсия Беннетт

О фильме: Провалив бродвейское прослушивание, эгоцентричная танцовщица Эйприл, неохотно возвращается домой и соглашается тренировать команду юных неудачниц для большого конкурса. Эйприл чувствует шанс, что благодаря этому, она может вернуться на Бродвей! Но постепенно она понимает, что в жизни есть более важные вещи, чем жить в Нью-Йорке и быть знаменитым.



Файл

Качество: WEB-DL 1080p
Формат: Matroska
Видео: MPEG-4 AVC Video, 1920x1080, 5800 Kbps, 24.000 fps
Аудио 1: Russian: 48 kHz, E-AC3, 3/2 (L,C,R,l,r) + LFE ch, 640 kbps - Дубляж, Пифагор
Аудио 2: English: 48 kHz, E-AC3 Atmos, 3/2 (L,C,R,l,r) + LFE ch, 768 kbps - Оригинал

Релиз от: by Kyle
скриншот  скриншот  скриншот  
Общее

Уникальный идентификатор : 88807253820864658396512559081078934005 (0x42CFA7AA3AA7091CADFA6DDFA80C49F5)

Полное имя : Feel.the.Beat.2020.1080p.NF.WEB-DL.DDP5.1.Atmos.x264-CMRG_Kyle.mkv

Формат : Matroska

Версия формата : Version 4

Размер файла : 5,43 Гбайт

Продолжительность : 1 ч. 49 м.

Режим общего битрейта : Переменный

Общий поток : 7 068 Кбит/сек

Дата кодирования : UTC 2020-06-19 07:30:36

Программа кодирования : mkvmerge v47.0.0 ('Black Flag') 64-bit

Библиотека кодирования : libebml v1.3.10 + libmatroska v1.5.2

Видео

Идентификатор : 1

Формат : AVC

Формат/Информация : Advanced Video Codec

Профиль формата : Main@L4

Настройки формата : CABAC / 3 Ref Frames

Параметр CABAC формата : Да

Параметр RefFrames формата : 3 кадра

Идентификатор кодека : V_MPEG4/ISO/AVC

Продолжительность : 1 ч. 49 м.

Вид битрейта : Переменный

Битрейт : 5 800 Кбит/сек

Максимальный битрейт : 8 700 Кбит/сек

Ширина : 1 920 пикселей

Высота : 1 080 пикселей

Соотношение сторон : 16:9

Режим частоты кадров : Постоянный

Частота кадров : 24,000 кадра/сек

Цветовое пространство : YUV

Субдискретизация насыщенности : 4:2:0

Битовая глубина : 8 бит

Тип развёртки : Прогрессивная

Бит/(Пиксели*Кадры) : 0.117

Размер потока : 4,35 Гбайт (80%)

Библиотека кодирования : x264 core 148 r2717 0d2410d

Настройки программы : cabac=1 / ref=3 / deblock=1:0:0 / analyse=0x1:0x111 / me=umh / subme=10 / psy=1 / psy_rd=1.00:0.00 / mixed_ref=1 / me_range=24 / chroma_me=1 / trellis=2 / 8x8dct=0 / cqm=0 / deadzone=21,11 / fast_pskip=1 / chroma_qp_offset=-2 / threads=8 / lookahead_threads=1 / sliced_threads=0 / nr=0 / decimate=1 / interlaced=0 / bluray_compat=0 / stitchable=1 / constrained_intra=0 / bframes=2 / b_pyramid=0 / b_adapt=2 / b_bias=0 / direct=3 / weightb=1 / open_gop=0 / weightp=2 / keyint=250 / keyint_min=24 / scenecut=0 / intra_refresh=0 / rc_lookahead=48 / rc=2pass / mbtree=1 / bitrate=5800 / ratetol=1.0 / qcomp=0.50 / qpmin=6 / qpmax=51 / qpstep=4 / cplxblur=20.0 / qblur=0.5 / vbv_maxrate=8700 / vbv_bufsize=11600 / nal_hrd=vbr / filler=0 / ip_ratio=1.40 / aq=1:1.00

Язык : English

Default : Да

Forced : Нет

Аудио #1

Идентификатор : 2

Формат : E-AC-3

Формат/Информация : Enhanced AC-3

Коммерческое название : Dolby Digital Plus

Идентификатор кодека : A_EAC3

Продолжительность : 1 ч. 49 м.

Вид битрейта : Постоянный

Битрейт : 640 Кбит/сек

Каналы : 6 каналов

Channel layout : L R C LFE Ls Rs

Частота : 48,0 КГц

Частота кадров : 31,250 кадров/сек (1536 SPF)

Метод сжатия : С потерями

Размер потока : 503 Мбайт (9%)

Язык : Russian

Default : Да

Forced : Нет

Аудио #2

Идентификатор : 3

Формат : E-AC-3 JOC

Формат/Информация : Enhanced AC-3 with Joint Object Coding

Коммерческое название : Dolby Digital Plus with Dolby Atmos

Идентификатор кодека : A_EAC3

Продолжительность : 1 ч. 49 м.

Вид битрейта : Постоянный

Битрейт : 768 Кбит/сек

Каналы : 6 каналов

Channel layout : L R C LFE Ls Rs

Частота : 48,0 КГц

Частота кадров : 31,250 кадров/сек (1536 SPF)

Метод сжатия : С потерями

Размер потока : 604 Мбайт (11%)

Заголовок : English

Язык : English

Default : Нет

Forced : Нет

Complexity index : 16

Number of dynamic objects : 15

Bed channel count : 1 канал

Bed channel configuration : LFE

Текст #1

Идентификатор : 4

Формат : UTF-8

Идентификатор кодека : S_TEXT/UTF8

Идентификатор кодека/Информация : UTF-8 Plain Text

Продолжительность : 1 ч. 46 м.

Битрейт : 2 бит/сек

Count of elements : 42

Размер потока : 1,71 Кбайт (0%)

Заголовок : Forced

Язык : Russian

Default : Да

Forced : Нет

Текст #2

Идентификатор : 5

Формат : UTF-8

Идентификатор кодека : S_TEXT/UTF8

Идентификатор кодека/Информация : UTF-8 Plain Text

Продолжительность : 1 ч. 46 м.

Битрейт : 87 бит/сек

Count of elements : 1537

Размер потока : 68,8 Кбайт (0%)

Заголовок : Russian

Язык : Russian

Default : Нет

Forced : Нет

Текст #3

Идентификатор : 6

Формат : UTF-8

Идентификатор кодека : S_TEXT/UTF8

Идентификатор кодека/Информация : UTF-8 Plain Text

Продолжительность : 1 ч. 46 м.

Битрейт : 111 бит/сек

Count of elements : 2061

Размер потока : 86,9 Кбайт (0%)

Заголовок : English

Язык : English

Default : Нет

Forced : Нет

Текст #4

Идентификатор : 7

Формат : UTF-8

Идентификатор кодека : S_TEXT/UTF8

Идентификатор кодека/Информация : UTF-8 Plain Text

Продолжительность : 50 м. 18 с.

Битрейт : 0 бит/сек

Count of elements : 7

Размер потока : 124 байт (0%)

Заголовок : English - [Forced]

Язык : English

Default : Нет

Forced : Нет

Текст #5

Идентификатор : 8

Формат : UTF-8

Идентификатор кодека : S_TEXT/UTF8

Идентификатор кодека/Информация : UTF-8 Plain Text

Продолжительность : 1 ч. 46 м.

Битрейт : 100 бит/сек

Count of elements : 1561

Размер потока : 78,6 Кбайт (0%)

Заголовок : Arabic

Язык : Arabic

Default : Нет

Forced : Нет

Текст #6

Идентификатор : 9

Формат : UTF-8

Идентификатор кодека : S_TEXT/UTF8

Идентификатор кодека/Информация : UTF-8 Plain Text

Продолжительность : 1 ч. 46 м.

Битрейт : 50 бит/сек

Count of elements : 1458

Размер потока : 39,3 Кбайт (0%)

Заголовок : Finnish

Язык : Finnish

Default : Нет

Forced : Нет

Текст #7

Идентификатор : 10

Формат : UTF-8

Идентификатор кодека : S_TEXT/UTF8

Идентификатор кодека/Информация : UTF-8 Plain Text

Продолжительность : 1 ч. 46 м.

Битрейт : 51 бит/сек

Count of elements : 1535

Размер потока : 40,6 Кбайт (0%)

Заголовок : French

Язык : French

Default : Нет

Forced : Нет

Текст #8

Идентификатор : 11

Формат : UTF-8

Идентификатор кодека : S_TEXT/UTF8

Идентификатор кодека/Информация : UTF-8 Plain Text

Продолжительность : 1 ч. 46 м.

Битрейт : 54 бит/сек

Count of elements : 1448

Размер потока : 42,9 Кбайт (0%)

Заголовок : German

Язык : German

Default : Нет

Forced : Нет

Текст #9

Идентификатор : 12

Формат : UTF-8

Идентификатор кодека : S_TEXT/UTF8

Идентификатор кодека/Информация : UTF-8 Plain Text

Продолжительность : 1 ч. 46 м.

Битрейт : 52 бит/сек

Count of elements : 1546

Размер потока : 40,8 Кбайт (0%)

Заголовок : Italian

Язык : Italian

Default : Нет

Forced : Нет

Текст #10

Идентификатор : 13

Формат : UTF-8

Идентификатор кодека : S_TEXT/UTF8

Идентификатор кодека/Информация : UTF-8 Plain Text

Продолжительность : 1 ч. 46 м.

Битрейт : 52 бит/сек

Count of elements : 1540

Размер потока : 41,2 Кбайт (0%)

Заголовок : Polish

Язык : Polish

Default : Нет

Forced : Нет

Текст #11

Идентификатор : 14

Формат : UTF-8

Идентификатор кодека : S_TEXT/UTF8

Идентификатор кодека/Информация : UTF-8 Plain Text

Продолжительность : 1 ч. 46 м.

Битрейт : 53 бит/сек

Count of elements : 1542

Размер потока : 41,9 Кбайт (0%)

Заголовок : Portuguese

Язык : Portuguese

Default : Нет

Forced : Нет

Текст #12

Идентификатор : 15

Формат : UTF-8

Идентификатор кодека : S_TEXT/UTF8

Идентификатор кодека/Информация : UTF-8 Plain Text

Продолжительность : 1 ч. 46 м.

Битрейт : 51 бит/сек

Count of elements : 1562

Размер потока : 40,3 Кбайт (0%)

Заголовок : European Spanish

Язык : Spanish

Default : Нет

Forced : Нет

Текст #13

Идентификатор : 16

Формат : UTF-8

Идентификатор кодека : S_TEXT/UTF8

Идентификатор кодека/Информация : UTF-8 Plain Text

Продолжительность : 1 ч. 46 м.

Битрейт : 54 бит/сек

Count of elements : 1180

Размер потока : 42,5 Кбайт (0%)

Заголовок : Swedish

Язык : Swedish

Default : Нет

Forced : Нет
pb.wtf



Скачать Чувствуй ритм через торрент https://i1.imageban.ru/out/2020/06/19/8386db964f1ffcd329ece8b929f7b14e.png Скачать фильм Чувствуй ритм через торрент бесплантно в хорошем качестве О фильме: Провалив бродвейское прослушивание, эгоцентричная танцовщица Эйприл, неохотно возвращается домой и соглашается тренировать ... 10 10 8
Торрент: Зарегистрирован [2020-06-19 14:55] · скачан: 148 раз
Статус: √ проверено
Размер: 5.43 GB
Как cкачать? Как скачать Чувствуй ритм через торрент | qTorrent

% Раздел Тема Автор DL S | L
Фильмы 2019-2020 [DVDrip, WEB-DLRip, HDrip] (DUB, MVO) [ 1.46 GB ] Чувствуй ритм / Feel the Beat [2020 WEB-DLRip] DUB [Пифагор] bober100 Скачать
4 | 0

28-11-2019 20:33  

Отключить всю рекламу на сайте

    Дорогой пользователь! Огромная просьба, поблагодарите релизера, оцените раздачу и оставьте свои комментарий, если Вы скачали Чувствуй ритм через торрент бесплатно! Внесите свою лепту в развитие PiratBit!
    Комментировать посты могут только пользователи прошедшие не сложную регистрацию
    Показать сообщения:    

    Чувствуй ритм через торрент
    Скачать бесплатно Чувствуй ритм
    Чувствуй ритм скачать торрент
    Чувствуй ритм смотреть онлайн
    Cкачать фильм Чувствуй ритм бесплатно
    Чувствуй ритм скачать торрент в хорошем качестве
    Чувствуй ритм смотреть онлайн бесплатно в хорошем качестве


    Вы не можете начинать темы
    Вы не можете отвечать на сообщения
    Вы не можете редактировать свои сообщения
    Вы не можете удалять свои сообщения
    Вы не можете голосовать в опросах
    Вы не можете прикреплять файлы к сообщениям
    Вы можете скачивать файлы