2 сезон

iTunes

MVO

1

2 сезон

iTunes

iTunes

1 сезон

RePack

30

Новинка

ВАЖНО

ИГРА 18+

pack

RePack

MK11
pack

Легкие деньги

RePack

jed

RePack

fifa19

RePack

RDR2

RePack

NEED FOR SPEED™ PAYBACK

4 сезон

9 сезон

Бесстыжие 9 сезон

Все сериалы

все сериалы на PB.wtf

RePack

FAR CRY 5

Anonymous, доброй ночи, мы не успеваем собрать деньги на оплату серверов за декабрь и январь, помогите нам пожалуйста в это трудное время. В качестве благодарности мы отключим Вам всю рекламу на сайте (укажите свой ник в строку Ваше имя)!

×
  
Magnet ссылка

Считанные секунды / Split second (Тони Мэйлэм, Йэн Шарп) [1992 г., ужасы, фантастика, боевик, триллер, криминал, BDRip 720p / 60 FPS, Профессиональный (многоголосый)] от R.G. HD-Films pb.wtf

Считанные секунды через торрент pb.wtf

Размер: 3.87 GB | Добавлен: 6 мес. назад | Торрент скачан:61 раз
Скачать  

20-06-2020 15:46 Считанные секунды Скачать торрент  

Считанные секунды / Split Second
Год выпуска: : 1992
Страна: : Великобритания
Жанр: : ужасы, фантастика, боевик, триллер, криминал
Продолжительность: 01:30:25
Перевод: Профессиональный (многоголосый закадровый)
Субтитры: Russian

Режиссер: Тони Мэйлэм, Йэн Шарп

Бюджет: $7 000 000
Премьера в мире: 23 апреля 1992

rating

В ролях: Рутгер Хауэр, Ким Кэтролл, Нил Дункан, Майкл Дж. Поллард, Алан Армстронг, Пит Постлетуэйт, Иэн Дёри, Роберта Итон, Тони Стидман, Стивен Хартли

Описание: 2008 год. Место действия — туманный Лондон, полузатопленный Темзой после всемирной экологической катастрофы. Город потрясен загадочными, нечеловеческими убийствами. Каждый день на улицах находят трупы людей с разорванной грудной клеткой… .

Качество видео: BDRip 720p / 60 FPS
Формат: MKV
Видео кодек: H.264
Аудио кодек: AC3
Видео : x264, 1280 x 720 ( 16:9 ), 5941 kbps, 60,000 fps, ( 0.107 bpp)
Аудио : Русский, AC-3, 48.0 KHz, 2 ch, 192 Kbps
Релиз от:

скриншот   скриншот   скриншот   скриншот   скриншот   скриншот  Автор рипа: slaventi-69
Общее
Уникальный идентификатор : 184644853557273742162897303374194220318 (0x8AE94E25253DC8FE83C4C9FA14A31D1E)
Полное имя : F:\Split.second.(1992).BDRip.720p.(60 Fps).mkv
Формат : Matroska
Версия формата : Version 4
Размер файла : 3,87 Гбайт
Продолжительность : 1 ч. 30 м.
Общий поток : 6137 Кбит/сек
Название фильма : Считанные секунды / Split second (1992) BDRip 720p (60 Fps)
Дата кодирования : UTC 2020-06-17 14:09:28
Программа кодирования : mkvmerge v12.0.0 ('Trust / Lust') 64bit
Библиотека кодирования : libebml v1.3.4 + libmatroska v1.4.5

Видео
Идентификатор : 1
Формат : AVC
Формат/Информация : Advanced Video Codec
Профиль формата : High@L4.1
Настройки формата : CABAC / 8 Ref Frames
Параметр CABAC формата : Да
Параметр RefFrames формата : 8 кадров
Идентификатор кодека : V_MPEG4/ISO/AVC
Продолжительность : 1 ч. 30 м.
Битрейт : 5941 Кбит/сек
Ширина : 1280 пикселей
Высота : 720 пикселей
Соотношение сторон : 16:9
Режим частоты кадров : Постоянный
Частота кадров : 60,000 кадров/сек
Цветовое пространство : YUV
Субдискретизация насыщенности : 4:2:0
Битовая глубина : 8 бит
Тип развёртки : Прогрессивная
Бит/(Пиксели*Кадры) : 0.107
Размер потока : 3,75 Гбайт (97%)
Заголовок : slaventi-69 ( R.G. HD-Films | 60 fps )
Библиотека кодирования : x264 core 130 r2273 b3065e6
Настройки программы : cabac=1 / ref=8 / deblock=1:-1:-1 / analyse=0x3:0x113 / me=umh / subme=9 / psy=1 / psy_rd=1.00:0.00 / mixed_ref=1 / me_range=28 / chroma_me=1 / trellis=2 / 8x8dct=1 / cqm=0 / deadzone=21,11 / fast_pskip=0 / chroma_qp_offset=-2 / threads=4 / lookahead_threads=2 / sliced_threads=0 / nr=0 / decimate=1 / interlaced=0 / bluray_compat=0 / constrained_intra=0 / bframes=5 / b_pyramid=2 / b_adapt=2 / b_bias=0 / direct=3 / weightb=1 / open_gop=0 / weightp=2 / keyint=600 / keyint_min=25 / scenecut=40 / intra_refresh=0 / rc=crf / mbtree=0 / crf=17.3 / qcomp=0.60 / qpmin=0 / qpmax=69 / qpstep=4 / ip_ratio=1.40 / pb_ratio=1.30 / aq=1:1.00
Язык : English
Default : Да
Forced : Нет

Аудио
Идентификатор : 2
Формат : AC-3
Формат/Информация : Audio Coding 3
Коммерческое название : Dolby Digital
Идентификатор кодека : A_AC3
Продолжительность : 1 ч. 30 м.
Вид битрейта : Постоянный
Битрейт : 192 Кбит/сек
Каналы : 2 канала
Channel layout : L R
Частота : 48,0 КГц
Частота кадров : 31,250 кадров/сек (1536 SPF)
Битовая глубина : 16 бит
Метод сжатия : С потерями
Размер потока : 124 Мбайт (3%)
Заголовок : MVO
Язык : Russian
ServiceKind/String : Complete Main
Default : Да
Forced : Нет

Текст
Идентификатор : 3
Формат : UTF-8
Идентификатор кодека : S_TEXT/UTF8
Идентификатор кодека/Информация : UTF-8 Plain Text
Продолжительность : 1 ч. 24 м.
Битрейт : 74 бит/сек
ElementCount : 807
Размер потока : 46,3 Кбайт (0%)
Заголовок : русские
Язык : Russian
Default : Нет
Forced : Нет

Просьба к переливающим на другие сайты, в оформлении указывайте пожалуйста авторство группы R.G. HD-Films pb.wtf



Скачать Считанные секунды через торрент http://i003.radikal.ru/1507/08/62e8e3c0bb21.png Скачать фильм Считанные секунды через торрент бесплантно в хорошем качестве Описание: 2008 год. Место действия — туманный Лондон, полузатопленный Темзой после всемирной экологической катастрофы. Город потрясен ... 10 10 5
Info! Золотая раздача, скачанное не засчитывается.
Торрент: Зарегистрирован [2020-06-20 15:46] · скачан: 61 раз
Статус: √ проверено
Размер: 3.87 GB
Как cкачать? Как скачать Считанные секунды через торрент | UTorrent



Последний раз редактировалось: slaventi-69 (2020-06-28 17:45), всего редактировалось 1 раз

28-11-2019 20:33  

Отключить всю рекламу на сайте

20-06-2020 20:29 Считанные секунды Скачать торрент  

Оказывается какие ужасы творились в Лондоне в 2008 г. ...pb.wtf



21-06-2020 04:19 Считанные секунды Скачать торрент  

Огромное спасибо за фильм!!! Памяти Рутгера Хауэра.... Да и Ким Кэтролл хороша. Благодарю за релиз!!!pb.wtf



21-06-2020 09:27 Считанные секунды Скачать торрент  

один из любимых фильмов.СПАСИБО!pb.wtf



21-06-2020 15:32 Считанные секунды Скачать торрент  

Шикарный фильм.RIP Рутгер Хауер.pb.wtf



    Дорогой пользователь! Огромная просьба, поблагодарите релизера, оцените раздачу и оставьте свои комментарий, если Вы скачали Считанные секунды через торрент бесплатно! Внесите свою лепту в развитие PiratBit!
    Комментировать посты могут только пользователи прошедшие не сложную регистрацию
    Показать сообщения:    

    Считанные секунды через торрент
    Скачать бесплатно Считанные секунды
    Считанные секунды скачать торрент
    Считанные секунды смотреть онлайн
    Cкачать фильм Считанные секунды бесплатно
    Считанные секунды скачать торрент в хорошем качестве
    Считанные секунды смотреть онлайн бесплатно в хорошем качестве


    Вы не можете начинать темы
    Вы не можете отвечать на сообщения
    Вы не можете редактировать свои сообщения
    Вы не можете удалять свои сообщения
    Вы не можете голосовать в опросах
    Вы не можете прикреплять файлы к сообщениям
    Вы можете скачивать файлы