Anonymous, добрый вечер, присоединяйтесь к нам в Telegram!, здесь всегда актуальный адрес сайта, оперативная поддержка и многое другое!

>

5.6

iTunes

7.4

iTunes

7.9

MVO

1

7.7

1 сезон

6.8

iTunes

7.3

1 сезон

13

6.7

1 сезон

8.3

RePack

30

ULTIMATE

pack

9.9

Лицензия

ВАЖНО

ИГРА 18+

pack

7.3

RePack

MK11

7.7

RePack

jed

7.8

RePack

fifa19

8.5

RePack

RDR2

RePack

NEED FOR SPEED™ PAYBACK

4 сезон

9 сезон

Бесстыжие 9 сезон

Все сериалы

все сериалы на PB.wtf

RePack

FAR CRY 5

Anonymous, добрый вечер, мы катастрофически не успеваем собрать деньги на оплату серверов, помогите нам пожалуйста 5,10,15р., для нас важна любая помощь . В качестве благодарности мы отключим Вам всю рекламу на сайте (укажите свой ник в строку Ваше имя)!

×
  
Magnet ссылка

Мир Юрского периода в 3D / Jurassic World in 3D (Колин Треворроу) [2015 г., США, Китай, Фантастика, приключения, боевик, BDRip 720p / 60 FPS, Дубляж] Анаглиф (Дюбуа) от R.G. HD-Films pb.wtf

Мир Юрского периода в 3D через торрент pb.wtf

Размер: 4.87 GB | Добавлен: 1 год 4 мес. назад | Торрент скачан:5 раз
Смотреть онлайн Мир Юрского периода в 3D | Скачать    Ребята, помогите собрать деньги на оплату серверов!!!

20-06-2020 17:20 Мир Юрского периода в 3D Скачать торрент  

Мир Юрского периода в 3D/ Jurassic World in 3D Год выпуска: : 2015
Страна: : США, Китай
Жанр: : Фантастика, Боевик, Приключения
Продолжительность: 02:04:21
Перевод: Дубляж
Субтитры: русские, украинские, английские

Режиссер: Колин Треворроу

Бюджет: $150 000 000
Премьера в мире: 29 мая 2015

rating

В ролях: Крис Пратт, Брайс Даллас Ховард, Ник Дж. Робинсон, Тай Симпкинс, Винсент Д’Онофрио, Ирфан Кхан, Омар Си, Б.Д. Вонг, Джейк Джонсон, Джуди Грир


Описание: Тысячи людей спешат увидеть Мир Юрского периода, но безопасное на первый взгляд развлечение может обернуться угрозой для их жизней...
Доп. информация: Формат 3D: Анаглиф (Дюбуа)



Качество видео: BDRip 720p / 60 FPS
Формат: MKV
Видео кодек: H.264
Аудио кодек: AC3
Видео : AVC, 1280 x 720 (16:9), 5214 kbps, 60,000 fps, 0.094 bpp
Аудио : Русский / AC3 / 48 KHz / 5.1 ch / 384 Kbps

Релиз от:

скриншот   скриншот   скриншот   скриншот   скриншот   скриншот  Автор рипа: slaventi-69

x264 [info]: frame I:1975 Avg QP:17.52 size: 91494
x264 [info]: frame P:106678 Avg QP:19.57 size: 24746
x264 [info]: frame B:339150 Avg QP:21.01 size: 6025
x264 [info]: consecutive B-frames: 1.8% 2.6% 7.7% 26.9% 50.2% 10.7%


Общее
Уникальный идентификатор : 227500703383848340787787215770109202284 (0xAB270AACF4F05393AB5D14EBDFDDCF6C)
Полное имя : F:\Jurassic.World.(2015).in.3D.(Anaglyph_Dubois).720p.(60 Fps).mkv
Формат : Matroska
Версия формата : Version 4
Размер файла : 4,87 Гбайт
Продолжительность : 2 ч. 4 м.
Общий поток : 5602 Кбит/сек
Название фильма : Мир Юрского периода / Jurassic World (2015) in 3D (Anaglyph_Dubois)(60 Fps)
Дата кодирования : UTC 2020-06-20 16:01:43
Программа кодирования : mkvmerge v12.0.0 ('Trust / Lust') 64bit
Библиотека кодирования : libebml v1.3.4 + libmatroska v1.4.5

Видео
Идентификатор : 1
Формат : AVC
Формат/Информация : Advanced Video Codec
Профиль формата : High@L4.1
MultiView_Count : 2
MultiView_Layout : Anaglyph (cyan/red)
Настройки формата : CABAC / 8 Ref Frames
Параметр CABAC формата : Да
Параметр RefFrames формата : 8 кадров
Идентификатор кодека : V_MPEG4/ISO/AVC
Продолжительность : 2 ч. 4 м.
Битрейт : 5214 Кбит/сек
Ширина : 1280 пикселей
Высота : 720 пикселей
Соотношение сторон : 16:9
Режим частоты кадров : Постоянный
Частота кадров : 60,000 кадров/сек
Цветовое пространство : YUV
Субдискретизация насыщенности : 4:2:0
Битовая глубина : 8 бит
Тип развёртки : Прогрессивная
Бит/(Пиксели*Кадры) : 0.094
Размер потока : 4,53 Гбайт (93%)
Заголовок : slaventi-69 ( R.G. HD-Films | 60 fps )
Библиотека кодирования : x264 core 130 r2273 b3065e6
Настройки программы : cabac=1 / ref=8 / deblock=1:-1:-1 / analyse=0x3:0x113 / me=umh / subme=9 / psy=1 / psy_rd=1.00:0.00 / mixed_ref=1 / me_range=26 / chroma_me=1 / trellis=2 / 8x8dct=1 / cqm=0 / deadzone=21,11 / fast_pskip=0 / chroma_qp_offset=-2 / threads=4 / lookahead_threads=2 / sliced_threads=0 / nr=0 / decimate=1 / interlaced=0 / bluray_compat=0 / constrained_intra=0 / bframes=5 / b_pyramid=2 / b_adapt=2 / b_bias=0 / direct=3 / weightb=1 / open_gop=0 / weightp=2 / keyint=600 / keyint_min=23 / scenecut=40 / intra_refresh=0 / rc=crf / mbtree=0 / crf=18.2 / qcomp=0.60 / qpmin=0 / qpmax=69 / qpstep=4 / ip_ratio=1.40 / pb_ratio=1.30 / aq=1:1.00
Язык : English
Default : Да
Forced : Нет

Аудио
Идентификатор : 2
Формат : AC-3
Формат/Информация : Audio Coding 3
Коммерческое название : Dolby Digital
Идентификатор кодека : A_AC3
Продолжительность : 2 ч. 4 м.
Вид битрейта : Постоянный
Битрейт : 384 Кбит/сек
Каналы : 6 каналов
Channel layout : L R C LFE Ls Rs
Частота : 48,0 КГц
Частота кадров : 31,250 кадров/сек (1536 SPF)
Битовая глубина : 16 бит
Метод сжатия : С потерями
Размер потока : 342 Мбайт (7%)
Заголовок : Dub
Язык : Russian
ServiceKind/String : Complete Main
Default : Да
Forced : Нет

Текст #1
Идентификатор : 3
Формат : UTF-8
Идентификатор кодека : S_TEXT/UTF8
Идентификатор кодека/Информация : UTF-8 Plain Text
Продолжительность : 1 ч. 39 м.
Битрейт : 0 бит/сек
ElementCount : 18
Размер потока : 615 байт (0%)
Язык : Russian
Default : Да
Forced : Нет

Текст #2
Идентификатор : 4
Формат : UTF-8
Идентификатор кодека : S_TEXT/UTF8
Идентификатор кодека/Информация : UTF-8 Plain Text
Продолжительность : 1 ч. 39 м.
Битрейт : 0 бит/сек
ElementCount : 18
Размер потока : 613 байт (0%)
Язык : Ukrainian
Default : Нет
Forced : Нет

Текст #3
Идентификатор : 5
Формат : UTF-8
Идентификатор кодека : S_TEXT/UTF8
Идентификатор кодека/Информация : UTF-8 Plain Text
Продолжительность : 1 ч. 52 м.
Битрейт : 75 бит/сек
ElementCount : 1227
Размер потока : 62,2 Кбайт (0%)
Язык : English
Default : Нет
Forced : Нет

Меню
00:00:00.000 : :(01)00:00:00:000
00:06:59.168 : :(02)00:06:59:168
00:11:01.827 : :(03)00:11:01:827
00:18:28.440 : :(04)00:18:28:440
00:25:34.866 : :(05)00:25:34:866
00:31:20.837 : :(06)00:31:20:837
00:39:23.861 : :(07)00:39:23:861
00:44:07.853 : :(08)00:44:07:853
00:48:57.225 : :(09)00:48:57:225
00:55:51.056 : :(10)00:55:51:056
01:01:21.344 : :(11)01:01:21:344
01:09:50.560 : :(12)01:09:50:561
01:15:25.479 : :(13)01:15:25:479
01:23:51.860 : :(14)01:23:51:860
01:30:14.700 : :(15)01:30:14:700
01:36:45.424 : :(16)01:36:45:424
01:41:15.652 : :(17)01:41:15:652
01:47:35.282 : :(18)01:47:35:282
01:53:06.029 : :(19)01:53:06:029
01:55:37.555 : :(20)01:55:37:555

Просьба к переливающим на другие сайты, в оформлении указывайте пожалуйста авторство группы R.G. HD-Films pb.wtf



Скачать Мир Юрского периода в 3D через торрент http://i89.fastpic.ru/big/2017/1026/8b/41a73d7c81379541bc77610e26f66b8b.jpg Скачать, смотреть онлайн Мир Юрского периода в 3D бесплантно в хорошем качестве Описание: Тысячи людей спешат увидеть Мир Юрского периода, но безопасное на первый взгляд развлечение может обернуться угрозой для их ... 1 10 1
Info! Золотая раздача, скачанное не засчитывается.
Торрент: Зарегистрирован [2020-06-20 17:20] · скачан: 5 раз
Статус: √ проверено
Размер: 4.87 GB
Как cкачать? Как скачать Мир Юрского периода в 3D через торрент | UTorrent

28-11-2019 20:33  

Отключить всю рекламу на сайте

01-07-2020 18:47 Мир Юрского периода в 3D Скачать торрент  

А вторую часть, но без 3д сделаеш?pb.wtf



    Дорогой пользователь! Огромная просьба, поблагодарите релизера, оцените раздачу и оставьте свои комментарий, если Вы скачали Мир Юрского периода в 3D через торрент бесплатно!
    Комментировать посты могут только пользователи прошедшие не сложную регистрацию
    Показать сообщения:    

    Мир Юрского периода в 3D через торрент
    Скачать бесплатно Мир Юрского периода в 3D
    Мир Юрского периода в 3D скачать торрент
    Мир Юрского периода в 3D смотреть онлайн
    Cкачать фильм Мир Юрского периода в 3D бесплатно
    Мир Юрского периода в 3D скачать торрент в хорошем качестве
    Мир Юрского периода в 3D смотреть онлайн бесплатно в хорошем качестве


    Вы не можете начинать темы
    Вы не можете отвечать на сообщения
    Вы не можете редактировать свои сообщения
    Вы не можете удалять свои сообщения
    Вы не можете голосовать в опросах
    Вы не можете прикреплять файлы к сообщениям
    Вы можете скачивать файлы