Аватар: Путь воды

Лицензия

В те дни

1 сезон

скачать смотреть онлайн John Wick Chapter 4

MVO

Крик 6

Дубляж

13 клиническая

3 сезон

Восстание зловещих мертвецов

Дубляж

Одни из нас

Дубляж

Dead Island 2 Gold

Gold

Deluxe RUS

Deluxe RUS

pack

Рекомендуем

ВАЖНО

ВАЖНО

30

Repack

The Lord of the Rings: Gollum

Лицензия

jed

RePack

nioh2

RePack

RDR2

RePack

NEED FOR SPEED™ PAYBACK

RePack

скачать торрент

Кинопоиск HD

Острые козырьки 6 сезон

6 сезон

FAR CRY 6

RePack

скачать торрент

Лицензия

скачать торрент

MVO

1

1 сезон

скачать торрент

1 сезон

скачать торрент

Лицензия

  

Купи меня (Вадим Перельман) [2018, Драма, мелодрама, HDRip-AVC, GER Transfer] [Лицензия] - ExKinoRay

Купи меня через торрент pb.wtf

Раздают: 1 [ 0 KB/s ]
Размер: 1.6 GB | Добавлен: 2 года 11 мес. назад | Торрент скачан:303 раза
Смотреть онлайн | Скачать | Поддержите нас   

21-06-2020 05:04 Купи меня Скачать торрент  

Оригинальное название: Купи меня
Год выпуска: 2018
Жанр: Драма, мелодрама
Режиссер: Вадим Перельман
В ролях: Анна Адамович, Юлия Хлынина, Светлана Устинова, Александр Цёма, Сабина Ахмедова, Максим Аль-Намес

Описание: Три девушки — три истории о том, как изменить свою жизнь и чем предстоит пожертвовать, чтобы стать «счастливыми». Порше, олигархи, секс, любовь и мечты о красивой жизни. Смогут ли героини добиться успеха, или они сломаются, так и не дойдя до цели?.

rating

Формат: MKV
Качество: HDRip-AVC
Исходник: Купи меня.2018.BDRip.1080p.KORSAR
Продолжительность: 01:47:17
Видео: MPEG-4 AVC, 1024x428 (2.40:1), 24.000 fps, ~1650 kbps avg, 0.160 bit/pixel
Аудио: 48 kHz, AC3 Dolby Digital, 3/2 (L,C,R,l,r) + LFE ch, ~448 kbps |
Перевод: Не требуется (оригинал) | Лицензия
Субтитры: Русские
General
Unique ID : 211172023299333574644683065412093738435 (0x9EDE409750F4FA7F9F3EF72AF583FDC3)
Complete name : F:\Купи.меня.2018.HDRip.AVC.ExKinoRay.mkv
Format : Matroska
Format version : Version 2
File size : 1.60 GiB
Duration : 1 h 47 min
Overall bit rate : 2 128 kb/s
Movie name : Купи меня 2018 from ExKinoRay
Encoded date : UTC 2020-06-21 04:28:23
Writing application : mkvmerge v5.6.0 ('Kenya Kane') built on May 27 2012 16:44:04
Writing library : libebml v1.2.3 + libmatroska v1.3.0

Video
ID : 1
Format : AVC
Format/Info : Advanced Video Codec
Format profile : [email protected]
Format settings, CABAC : Yes
Format settings, ReFrames : 12 frames
Codec ID : V_MPEG4/ISO/AVC
Duration : 1 h 47 min
Bit rate : 1 680 kb/s
Width : 1 024 pixels
Height : 428 pixels
Display aspect ratio : 2.40:1
Frame rate mode : Constant
Frame rate : 24.000 FPS
Color space : YUV
Chroma subsampling : 4:2:0
Bit depth : 8 bits
Scan type : Progressive
Bits/(Pixel*Frame) : 0.160
Stream size : 1.23 GiB (77%)
Title : Enigma
Writing library : x264 core 152 r2851 ba24899
Encoding settings : cabac=1 / ref=12 / deblock=1:-2:-2 / analyse=0x3:0x113 / me=umh / subme=10 / psy=1 / psy_rd=1.02:0.08 / mixed_ref=1 / me_range=32 / chroma_me=1 / trellis=2 / 8x8dct=1 / cqm=0 / deadzone=21,11 / fast_pskip=0 / chroma_qp_offset=-3 / threads=12 / lookahead_threads=3 / sliced_threads=0 / nr=0 / decimate=0 / interlaced=0 / bluray_compat=0 / constrained_intra=0 / bframes=12 / b_pyramid=2 / b_adapt=2 / b_bias=0 / direct=3 / weightb=1 / open_gop=0 / weightp=2 / keyint=240 / keyint_min=24 / scenecut=40 / intra_refresh=0 / rc=2pass / mbtree=0 / bitrate=1680 / ratetol=1.0 / qcomp=0.60 / qpmin=0 / qpmax=51 / qpstep=4 / cplxblur=20.0 / qblur=0.5 / ip_ratio=1.40 / pb_ratio=1.30 / aq=2:0.80
Language : English
Default : Yes
Forced : No
Color range : Limited
Color primaries : BT.709
Transfer characteristics : BT.709
Matrix coefficients : BT.709

Audio
ID : 2
Format : AC-3
Format/Info : Audio Coding 3
Mode extension : CM (complete main)
Format settings, Endianness : Big
Codec ID : A_AC3
Duration : 1 h 47 min
Bit rate mode : Constant
Bit rate : 448 kb/s
Channel(s) : 6 channels
Channel positions : Front: L C R, Side: L R, LFE
Sampling rate : 48.0 kHz
Frame rate : 31.250 FPS (1536 spf)
Compression mode : Lossy
Stream size : 344 MiB (21%)
Title : Blu-Ray
Language : Russian
Default : Yes
Forced : No

Text
ID : 3
Format : UTF-8
Codec ID : S_TEXT/UTF8
Codec ID/Info : UTF-8 Plain Text
Title : Full
Language : Russian
Default : No
Forced : No

Menu
00:00:00.000 : en:00:00:00.000
00:03:37.208 : en:00:03:37.208
00:09:55.417 : en:00:09:55.417
00:17:26.917 : en:00:17:26.917
00:25:45.417 : en:00:25:45.417
00:30:31.292 : en:00:30:31.292
00:35:53.625 : en:00:35:53.625
00:42:38.000 : en:00:42:38.000
00:46:41.167 : en:00:46:41.167
00:51:12.292 : en:00:51:12.292
00:57:51.375 : en:00:57:51.375
01:06:29.417 : en:01:06:29.417
01:12:59.292 : en:01:12:59.292
01:17:07.625 : en:01:17:07.625
01:22:11.625 : en:01:22:11.625
01:26:51.750 : en:01:26:51.750
01:39:46.167 : en:01:39:46.167
01:45:25.625 : en:01:45:25.625


Релиз от: VK релиз-группы

Автор релиза: Enigma



Скачать Купи меня через торрент http://i99.fastpic.ru/big/2018/0303/51/61b12a0b81489bb7b0b8a8dfa15c3451.jpg Скачать, смотреть онлайн Купи меня бесплатно в хорошем качестве Описание: Три девушки — три истории о том, как изменить свою жизнь и чем предстоит пожертвовать, чтобы стать «счастливыми». Порше, ... 10 10 8
Info! Золотая раздача, скачанное не засчитывается.
Торрент: Зарегистрирован [2020-06-21 05:04] · скачан: 303 раз
Статус: √ проверено
Размер: 1.6 GB
Как cкачать? Как скачать Купи меня через торрент | UTorrent

% Раздел Тема Автор DL S | L
Наши фильмы 2018-2019 [ 1.52 GB ] Купи меня | iTunes | DLRip-AVC Enigma2010 Скачать
1 | 0

28-11-2019 20:33  


Отключить вcю реклaмy на сайте, в т.ч. и в плеере онлайн просмотра!

24-06-2020 16:01 Купи меня Скачать торрент  

мде , подруга -подкинула проблем ....



    Дорогой пользователь! Огромная просьба, поблагодарите релизера, оцените раздачу и оставьте свои комментарий, если Вы скачали Купи меня через торрент бесплатно!!
    Комментировать посты могут только пользователи прошедшие не сложную регистрацию
    Показать сообщения:    


    Купи меня через торрент
    Скачать бесплатно Купи меня
    Купи меня скачать торрент
    Купи меня смотреть онлайн
    Cкачать фильм Купи меня бесплатно
    Купи меня скачать торрент в хорошем качестве
    Купи меня смотреть онлайн бесплатно в хорошем качестве
    Вы не можете начинать темы
    Вы не можете отвечать на сообщения
    Вы не можете редактировать свои сообщения
    Вы не можете удалять свои сообщения
    Вы не можете голосовать в опросах
    Вы не можете прикреплять файлы к сообщениям
    Вы можете скачивать файлы