2 сезон

iTunes

MVO

1

2 сезон

iTunes

iTunes

1 сезон

RePack

30

Ultimate

ВАЖНО

ИГРА 18+

pack

RePack

MK11
pack

Легкие деньги

RePack

jed

RePack

fifa19

RePack

RDR2

RePack

NEED FOR SPEED™ PAYBACK

4 сезон

9 сезон

Бесстыжие 9 сезон

Все сериалы

все сериалы на PB.wtf

RePack

FAR CRY 5

Anonymous, доброй ночи, мы не успеваем собрать деньги на оплату серверов за декабрь и январь, помогите нам пожалуйста в это трудное время. В качестве благодарности мы отключим Вам всю рекламу на сайте (укажите свой ник в строку Ваше имя)!

×
  
Magnet ссылка

Скрытые / The Hidden (Джек Шолдер) [1987 г., ужасы, фантастика, боевик, триллер, криминал, BDRip 720p / 60 FPS, Дубляж] от R.G. HD-Films pb.wtf

Скрытые через торрент pb.wtf

Раздают: 1 [ 0 KB/s ]
Размер: 3.85 GB | Добавлен: 7 мес. назад | Торрент скачан:44 раза
Скачать  

22-06-2020 12:23 Скрытые Скачать торрент  

Скрытые / The Hidden
Год выпуска: : 1987
Страна: : США
Жанр: : ужасы, фантастика, боевик, триллер, криминал
Продолжительность: 01:37:04
Перевод: Дубляж ( Хлопушка )
Субтитры: English

Режиссер: Джек Шолдер

Премьера в мире: 30 октября 1987

rating

В ролях: Кайл МакЛоклен, Майкл Нури, Клаудия Кристиан, Кларенс Фелдер, Клу Гулагер, Эд О’Росс, Уильям Бойетт, Ричард Брукс, Ларри Седар, Кэтрин Кэннон, ...

Описание: Отдел по расследованию убийств не спит уже которую ночь: по городу катится волна необычных преступлений. Своеобразие их в том, что все преступники — вполне добропорядочные и законопослушные граждане, в которых будто бы сам черт вселился, заставляя их творить всяческие кошмарные, ненормальные вещи. У детектива Тома Бека, ведущего следствие по этому делу, просто голова кругом идет…
И уж, конечно же, меньше всего ему хочется оказывать всяческое содействие присланному сверху сотруднику ФБР Ллойду Гэллагеру, — человеку со странностями, логику которого понять, кажется, абсолютно невозможно. Но что если и вправду это дело рук инопланетян, вселяющихся в тела землян?…


Качество видео: BDRip 720p / 60 FPS
Формат: MKV
Видео кодек: H.264
Аудио кодек: AC3
Видео : x264, 1280 x 720 ( 16:9 ), 5492 kbps, 60,000 fps, ( 0.099 bpp)
Аудио : Русский, AC-3, 48.0 KHz, 2 ch, 192 Kbps Dub ( Хлопушка )
Релиз от:

скриншот   скриншот   скриншот   скриншот   скриншот   скриншот  Автор рипа: slaventi-69
x264 [info]: frame I:1316 Avg QP:19.21 size: 75257
x264 [info]: frame P:75776 Avg QP:20.50 size: 31023
x264 [info]: frame B:272006 Avg QP:22.22 size: 5677
x264 [info]: consecutive B-frames: 0.9% 2.1% 4.5% 13.1% 62.8% 16.6%


Общее
Уникальный идентификатор : 211063419547509207889932319231874465345 (0x9EC9560340AD578191589AEFBBC87E41)
Полное имя : F:\The.Hidden.(1987).BDRip.720p.(60 Fps).mkv
Формат : Matroska
Версия формата : Version 4
Размер файла : 3,85 Гбайт
Продолжительность : 1 ч. 36 м.
Общий поток : 5688 Кбит/сек
Название фильма : Скрытые / The Hidden (1987) BDRip 720p (60 Fps)
Дата кодирования : UTC 2020-06-17 14:19:21
Программа кодирования : mkvmerge v12.0.0 ('Trust / Lust') 64bit
Библиотека кодирования : libebml v1.3.4 + libmatroska v1.4.5

Видео
Идентификатор : 1
Формат : AVC
Формат/Информация : Advanced Video Codec
Профиль формата : High@L4.1
Настройки формата : CABAC / 9 Ref Frames
Параметр CABAC формата : Да
Параметр RefFrames формата : 9 кадров
Идентификатор кодека : V_MPEG4/ISO/AVC
Продолжительность : 1 ч. 36 м.
Битрейт : 5492 Кбит/сек
Ширина : 1280 пикселей
Высота : 720 пикселей
Соотношение сторон : 16:9
Режим частоты кадров : Постоянный
Частота кадров : 60,000 кадров/сек
Цветовое пространство : YUV
Субдискретизация насыщенности : 4:2:0
Битовая глубина : 8 бит
Тип развёртки : Прогрессивная
Бит/(Пиксели*Кадры) : 0.099
Размер потока : 3,72 Гбайт (97%)
Заголовок : slaventi-69 ( R.G. HD-Films | 60 fps )
Библиотека кодирования : x264 core 130 r2273 b3065e6
Настройки программы : cabac=1 / ref=9 / deblock=1:-1:-1 / analyse=0x3:0x113 / me=umh / subme=9 / psy=1 / psy_rd=1.00:0.00 / mixed_ref=1 / me_range=26 / chroma_me=1 / trellis=2 / 8x8dct=1 / cqm=0 / deadzone=21,11 / fast_pskip=0 / chroma_qp_offset=-2 / threads=4 / lookahead_threads=2 / sliced_threads=0 / nr=0 / decimate=1 / interlaced=0 / bluray_compat=0 / constrained_intra=0 / bframes=5 / b_pyramid=2 / b_adapt=2 / b_bias=0 / direct=3 / weightb=1 / open_gop=0 / weightp=2 / keyint=600 / keyint_min=25 / scenecut=40 / intra_refresh=0 / rc=crf / mbtree=0 / crf=18.0 / qcomp=0.60 / qpmin=0 / qpmax=69 / qpstep=4 / ip_ratio=1.40 / pb_ratio=1.30 / aq=1:1.00
Язык : English
Default : Да
Forced : Нет

Аудио
Идентификатор : 2
Формат : AC-3
Формат/Информация : Audio Coding 3
Коммерческое название : Dolby Digital
Идентификатор кодека : A_AC3
Продолжительность : 1 ч. 36 м.
Вид битрейта : Постоянный
Битрейт : 192 Кбит/сек
Каналы : 2 канала
Channel layout : L R
Частота : 48,0 КГц
Частота кадров : 31,250 кадров/сек (1536 SPF)
Битовая глубина : 16 бит
Метод сжатия : С потерями
Размер потока : 133 Мбайт (3%)
Заголовок : Dub ( Хлопушка )
Язык : Russian
ServiceKind/String : Complete Main
Default : Да
Forced : Нет

Текст
Идентификатор : 3
Формат : UTF-8
Идентификатор кодека : S_TEXT/UTF8
Идентификатор кодека/Информация : UTF-8 Plain Text
Продолжительность : 1 ч. 31 м.
Битрейт : 45 бит/сек
ElementCount : 1152
Размер потока : 30,2 Кбайт (0%)
Заголовок : Full
Язык : English
Default : Нет
Forced : Нет

Меню
00:00:00.000 : en:00:00:00.000
00:03:04.726 : en:00:03:04.726
00:08:19.457 : en:00:08:19.457
00:12:20.865 : en:00:12:20.865
00:16:27.528 : en:00:16:27.528
00:21:30.456 : en:00:21:30.456
00:24:57.079 : en:00:24:57.079
00:29:15.587 : en:00:29:15.587
00:31:44.319 : en:00:31:44.319
00:35:40.180 : en:00:35:40.180
00:41:32.031 : en:00:41:32.031
00:45:39.904 : en:00:45:39.904
00:51:02.059 : en:00:51:02.059
01:00:25.413 : en:01:00:25.413
01:06:59.891 : en:01:06:59.891
01:11:10.016 : en:01:11:10.016
01:15:06.627 : en:01:15:06.627
01:20:38.292 : en:01:20:38.292
01:25:52.689 : en:01:25:52.689
01:29:09.803 : en:01:29:09.803
01:32:58.490 : en:01:32:58.490

Просьба к переливающим на другие сайты, в оформлении указывайте пожалуйста авторство группы R.G. HD-Films pb.wtf



Скачать Скрытые через торрент http://a.radikal.ru/a05/1904/3c/c252e75fa4e9.png Скачать фильм Скрытые через торрент бесплантно в хорошем качестве Описание: Отдел по расследованию убийств не спит уже которую ночь: по городу катится волна необычных преступлений. Своеобразие их в том, ... 10 10 3
Info! Золотая раздача, скачанное не засчитывается.
Торрент: Зарегистрирован [2020-06-22 12:23] · скачан: 44 раз
Статус: √ проверено
Размер: 3.85 GB
Как cкачать? Как скачать Скрытые через торрент | UTorrent



Последний раз редактировалось: slaventi-69 (2020-06-28 17:43), всего редактировалось 1 раз

28-11-2019 20:33  

Отключить всю рекламу на сайте

22-06-2020 18:42 Скрытые Скачать торрент  

Благодарю за прекрасную фантастику из 80-х !!! Когда первый раз увидел этот фильм на VHS, никогда не думал, что когда-нибудь смогу его посмотреть в BD-rip, а тем более в качестве 60 fps. Огромное спасибо за Ваш труд!!!

Жаль только, что вторая часть этой дилогии получилась не ахти...pb.wtf



22-06-2020 19:22 Скрытые Скачать торрент  

Пожалуйста, потихоньку доделываю, смотрите в удовольствие.pb.wtf



24-06-2020 03:54 Скрытые Скачать торрент  

норм... от души.pb.wtf



    Дорогой пользователь! Огромная просьба, поблагодарите релизера, оцените раздачу и оставьте свои комментарий, если Вы скачали Скрытые через торрент бесплатно! Внесите свою лепту в развитие PiratBit!
    Комментировать посты могут только пользователи прошедшие не сложную регистрацию
    Показать сообщения:    

    Скрытые через торрент
    Скачать бесплатно Скрытые
    Скрытые скачать торрент
    Скрытые смотреть онлайн
    Cкачать фильм Скрытые бесплатно
    Скрытые скачать торрент в хорошем качестве
    Скрытые смотреть онлайн бесплатно в хорошем качестве


    Вы не можете начинать темы
    Вы не можете отвечать на сообщения
    Вы не можете редактировать свои сообщения
    Вы не можете удалять свои сообщения
    Вы не можете голосовать в опросах
    Вы не можете прикреплять файлы к сообщениям
    Вы можете скачивать файлы