Anonymous, добрый вечер, присоединяйтесь к нам в Telegram!, здесь всегда актуальный адрес сайта, оперативная поддержка и многое другое!

>

5.6

iTunes

7.4

MVO

5.7

MVO

1

7.7

1 сезон

6.8

iTunes

7.3

1 сезон

13

6.7

1 сезон

8.3

RePack

30

ULTIMATE

pack

9.9

Лицензия

ВАЖНО

ИГРА 18+

pack

7.3

RePack

MK11

7.7

RePack

jed

7.8

RePack

fifa19

8.5

RePack

RDR2

RePack

NEED FOR SPEED™ PAYBACK

4 сезон

9 сезон

Бесстыжие 9 сезон

Все сериалы

все сериалы на PB.wtf

RePack

FAR CRY 5

Anonymous, добрый вечер, мы катастрофически не успеваем собрать деньги на оплату серверов, помогите нам пожалуйста 5,10,15р., для нас важна любая помощь . В качестве благодарности мы отключим Вам всю рекламу на сайте (укажите свой ник в строку Ваше имя)!

×
  
Magnet ссылка

Три икса: Мировое господство в 3D / xXx: Return of Xander Cage in 3D (Ди Джей Карузо) [2017 г., Боевик, Триллер, Приключения, BDRip 720p / 60 FPS, Дубляж] Анаглиф (Дюбуа) от R.G. HD-Films pb.wtf

Три икса: Мировое господство в 3D через торрент pb.wtf

Размер: 4.58 GB | Добавлен: 1 год 3 мес. назад | Торрент скачан:5 раз
Смотреть онлайн Три икса: Мировое господство в 3D | Скачать    Ребята, помогите собрать деньги на оплату серверов!!!

22-06-2020 13:09 Три икса: Мировое господство в 3D Скачать торрент  

Три икса: Мировое господство в 3D / xXx: Return of Xander Cage in 3D
Год выпуска: 2017
Страна: США
Жанр: Боевик, Триллер, Приключения
Продолжительность: 01:46:46
Перевод: Дубляж Лицензия
Субтитры: Русские, украинские, английские

Режиссер: Ди Джей Карузо

Бюджет: $85 000 000
Премьера в мире: 5 января 2017 (19 января 2017)

В ролях: Вин Дизель, Донни Йен, Дипика Падукон, Крис У, Руби Роуз, Тони Джаа, Нина Добрев, Рори МакКанн, Тони Коллетт, Сэмюэл Л. Джексон, Айс Кьюб, Гермиона Корфилд, Тони Гонзалез, Майкл Биспинг, Ал Сапиенца, Найджел Беннетт

Описание: Ксандер Кейдж спустя годы возвращается из добровольного изгнания и попадает в безумный водоворот событий. Он собирает команду безбашенных экстремалов, вместе с которыми ему предстоит найти мощнейшее секретное оружие — «Ящик Пандоры». Действовать нужно быстро: за разработкой охотятся опасные головорезы. Ставки в смертельной игре повышаются, когда выясняется, что мировые правительства вовлечены в кровавый заговор, а на кону — судьба мира.

Описание альтернативное: Правительство США поручает группе чистильщиков бассейнов и прочим любителям экстремальных ощущений найти секретное оружие возмездия под названием "Ящик Пандоры". Во главе команды становится Ксандер Кейдж, принудительно возвращенный из добровольного отпуска. Дело осложняется тем, что на поиски таинственного устройства уже выдвинулись летучие отряды паркурщиков, сборная отъявленных скейтбордистов в тяжелом весе и профессиональные художники стрит-арта. (HectorDragon)

Доп. информация: Формат 3D: Анаглиф (Дюбуа)



Качество: BDRip 720p / 60 FPS
Формат: MKV
Видео кодек: H.264
Аудио кодек: AC3
Видео: x264, 1280 x 720 ( 16:9 ), 5756 kbps, 60,000 fps, ( 0.104 bpp)
Аудио#1: Русский / AC3 / 48 KHz / 5.1 ch /384 Kbps (Дубляж - BD CEE)
Релиз от:

скриншот   скриншот   скриншот   скриншот   скриншот   скриншот  Автор рипа: slaventi-69
Общее
Уникальный идентификатор : 142478406999149687103717444256298316032 (0x6B3057D1EAB0394AF804F512506A3100)
Полное имя : F:\xXx.Return.of.Xander.Cage.(2017).720p.3Д.(Anaglyph_Dubois).( 60fps).mkv
Формат : Matroska
Версия формата : Version 4
Размер файла : 4,58 Гбайт
Продолжительность : 1 ч. 46 м.
Общий поток : 6144 Кбит/сек
Название фильма : Три икса: Мировое господство / xXx: Return of Xander Cage (2017)720p в 3Д (Anaglyph_Dubois)( 60fps)
Дата кодирования : UTC 2020-06-21 12:40:15
Программа кодирования : mkvmerge v35.0.0 ('All The Love In The World') 64-bit
Библиотека кодирования : libebml v1.3.9 + libmatroska v1.5.2

Видео
Идентификатор : 1
Формат : AVC
Формат/Информация : Advanced Video Codec
Профиль формата : High@L4.1
Настройки формата : CABAC / 9 Ref Frames
Параметр CABAC формата : Да
Параметр RefFrames формата : 9 кадров
Идентификатор кодека : V_MPEG4/ISO/AVC
Продолжительность : 1 ч. 46 м.
Битрейт : 5756 Кбит/сек
Ширина : 1280 пикселей
Высота : 720 пикселей
Соотношение сторон : 16:9
Режим частоты кадров : Постоянный
Частота кадров : 60,000 кадров/сек
Цветовое пространство : YUV
Субдискретизация насыщенности : 4:2:0
Битовая глубина : 8 бит
Тип развёртки : Прогрессивная
Бит/(Пиксели*Кадры) : 0.104
Размер потока : 4,29 Гбайт (94%)
Заголовок : slaventi-69 ( R.G. HD-Films ) 3Д (Anaglyph_Dubois)
Библиотека кодирования : x264 core 130 r2273 b3065e6
Настройки программы : cabac=1 / ref=9 / deblock=1:-1:-1 / analyse=0x3:0x133 / me=umh / subme=9 / psy=1 / psy_rd=1.00:0.00 / mixed_ref=1 / me_range=32 / chroma_me=1 / trellis=2 / 8x8dct=1 / cqm=0 / deadzone=21,11 / fast_pskip=0 / chroma_qp_offset=-2 / threads=10 / lookahead_threads=2 / sliced_threads=0 / nr=0 / decimate=1 / interlaced=0 / bluray_compat=0 / constrained_intra=0 / bframes=5 / b_pyramid=2 / b_adapt=2 / b_bias=0 / direct=1 / weightb=1 / open_gop=0 / weightp=2 / keyint=600 / keyint_min=23 / scenecut=40 / intra_refresh=0 / rc=crf / mbtree=0 / crf=17.0 / qcomp=0.60 / qpmin=0 / qpmax=69 / qpstep=4 / ip_ratio=1.40 / pb_ratio=1.30 / aq=1:1.00
Язык : English
Default : Да
Forced : Нет

Аудио
Идентификатор : 2
Формат : AC-3
Формат/Информация : Audio Coding 3
Коммерческое название : Dolby Digital
Идентификатор кодека : A_AC3
Продолжительность : 1 ч. 46 м.
Вид битрейта : Постоянный
Битрейт : 384 Кбит/сек
Каналы : 6 каналов
Channel layout : L R C LFE Ls Rs
Частота : 48,0 КГц
Частота кадров : 31,250 кадров/сек (1536 SPF)
Битовая глубина : 16 бит
Метод сжатия : С потерями
Размер потока : 293 Мбайт (6%)
Заголовок : Дубляж - BD CEE
Язык : Russian
ServiceKind/String : Complete Main
Default : Да
Forced : Нет

Текст #1
Идентификатор : 3
Формат : UTF-8
Идентификатор кодека : S_TEXT/UTF8
Идентификатор кодека/Информация : UTF-8 Plain Text
Продолжительность : 1 ч. 42 м.
Битрейт : 2 бит/сек
ElementCount : 42
Размер потока : 2,23 Кбайт (0%)
Заголовок : Forced
Язык : Russian
Default : Да
Forced : Нет

Текст #2
Идентификатор : 4
Формат : UTF-8
Идентификатор кодека : S_TEXT/UTF8
Идентификатор кодека/Информация : UTF-8 Plain Text
Продолжительность : 1 ч. 42 м.
Битрейт : 69 бит/сек
ElementCount : 1005
Размер потока : 52,6 Кбайт (0%)
Заголовок : Full
Язык : Russian
Default : Нет
Forced : Нет

Текст #3
Идентификатор : 5
Формат : UTF-8
Идентификатор кодека : S_TEXT/UTF8
Идентификатор кодека/Информация : UTF-8 Plain Text
Продолжительность : 1 ч. 42 м.
Битрейт : 2 бит/сек
ElementCount : 43
Размер потока : 2,24 Кбайт (0%)
Заголовок : Forced
Язык : Ukrainian
Default : Нет
Forced : Нет

Текст #4
Идентификатор : 6
Формат : UTF-8
Идентификатор кодека : S_TEXT/UTF8
Идентификатор кодека/Информация : UTF-8 Plain Text
Продолжительность : 1 ч. 42 м.
Битрейт : 70 бит/сек
ElementCount : 1124
Размер потока : 52,8 Кбайт (0%)
Заголовок : Full
Язык : Ukrainian
Default : Нет
Forced : Нет

Текст #5
Идентификатор : 7
Формат : UTF-8
Идентификатор кодека : S_TEXT/UTF8
Идентификатор кодека/Информация : UTF-8 Plain Text
Продолжительность : 1 ч. 36 м.
Битрейт : 47 бит/сек
ElementCount : 1109
Размер потока : 33,5 Кбайт (0%)
Заголовок : Full
Язык : English
Default : Нет
Forced : Нет

Меню
00:00:00.000 : en:00:00:00.000
00:07:09.137 : en:00:07:09.137
00:12:00.511 : en:00:12:00.511
00:22:38.107 : en:00:22:38.107
00:27:56.258 : en:00:27:56.258
00:38:27.764 : en:00:38:27.764
00:46:59.650 : en:00:46:59.650
00:52:45.621 : en:00:52:45.621
01:02:10.060 : en:01:02:10.060
01:11:50.181 : en:01:11:50.181
01:18:35.252 : en:01:18:35.252
01:28:42.734 : en:01:28:42.734
01:37:57.163 : en:01:37:57.163

Просьба к переливающим на другие сайты, в оформлении указывайте пожалуйста авторство группы R.G. HD-Films pb.wtf



Скачать Три икса: Мировое господство в 3D через торрент http://i96.fastpic.ru/big/2017/0524/65/3ec688a34bc18969ccb0b3ca95439165.png Скачать, смотреть онлайн Три икса: Мировое господство в 3D бесплантно в хорошем качестве Описание: Ксандер Кейдж спустя годы возвращается из добровольного изгнания и попадает в безумный водоворот событий. Он собирает команду ... 5 10 1
Торрент: Зарегистрирован [2020-06-22 13:09] · скачан: 5 раз
Статус: √ проверено
Размер: 4.58 GB
Как cкачать? Как скачать Три икса: Мировое господство в 3D через торрент | UTorrent

28-11-2019 20:33  

Отключить всю рекламу на сайте

    Дорогой пользователь! Огромная просьба, поблагодарите релизера, оцените раздачу и оставьте свои комментарий, если Вы скачали Три икса: Мировое господство в 3D через торрент бесплатно!
    Комментировать посты могут только пользователи прошедшие не сложную регистрацию
    Показать сообщения:    

    Три икса: Мировое господство в 3D через торрент
    Скачать бесплатно Три икса: Мировое господство в 3D
    Три икса: Мировое господство в 3D скачать торрент
    Три икса: Мировое господство в 3D смотреть онлайн
    Cкачать фильм Три икса: Мировое господство в 3D бесплатно
    Три икса: Мировое господство в 3D скачать торрент в хорошем качестве
    Три икса: Мировое господство в 3D смотреть онлайн бесплатно в хорошем качестве


    Вы не можете начинать темы
    Вы не можете отвечать на сообщения
    Вы не можете редактировать свои сообщения
    Вы не можете удалять свои сообщения
    Вы не можете голосовать в опросах
    Вы не можете прикреплять файлы к сообщениям
    Вы можете скачивать файлы